This file was generated by Ched 2.6.2.0.
#TITLE ""
#ARTIST ""
#DESIGNER ""
#DIFFICULTY 0
#PLAYLEVEL
#SONGID ""
#WAVE ""
#WAVEOFFSET 0
#JACKET ""
#REQUEST "ticks_per_beat 480"
#00002: 4
#BPM01: 150
#00008: 01
#TIL00: ""
#HISPEED 00
#MEASUREHS 00
#02812:16
#00019:14
#00113:14
#02518:2616
#02618:16
#02712:1616
#02710:41
#02919:14
#02913:0014
#03019:14
#03013:0014
#04019:14
#05319:14
#05313:0014
#06413:0014
#06419:14
#00819:14
#00810:41
#00913:14
#0161a:14
#01714:14
#01710:41
#0411f:11
#01213:14
#01319:14
#02012:14
#02118:14
#03618:16
#03312:2616
#03412:16
#03518:1616
#03713:14
#03719:0014
#03813:14
#03819:0014
#04912:0016
#04918:26
#0491f:21
#05018:16
#05112:16
#05118:0016
#05110:41
#05212:16
#05419:14
#05413:0014
#06113:14
#06119:0014
#05718:0016
#05712:26
#05812:16
#05918:16
#05912:0016
#06018:16
#06213:14
#06219:0014
#00219:14
#00313:14
#00419:14
#00513:14
#03119:14
#03213:14
#03913:14
#03910:41
#05519:14
#05613:14
#06313:14
#01019:14
#01413:14
#07313:24
#06910:41
#006390:14
#007390:24
#018380:14
#019380:24
#022340:14
#024340:24
#041390:14
#042390:0024
#043330:14
#044330:0024
#045380:16
#046380:0026
#047320:16
#048320:26
#065380:16
#066380:0026
#067320:16
#068320:0026
#069390:14
#072390:0024
#073330:14
#075330:24
