This file was generated by Ched 2.6.2.0.
#TITLE "Tell your world"
#ARTIST "exp"
#DESIGNER ""
#DIFFICULTY 0
#PLAYLEVEL
#SONGID ""
#WAVE ""
#WAVEOFFSET 0
#JACKET ""
#REQUEST "ticks_per_beat 480"
#00002: 4
#BPM01: 150
#00008: 01
#TIL00: ""
#HISPEED 00
#MEASUREHS 00
#00016:0000120000120000
#00018:0012000000000000
#0001c:0000001200000012
#00019:00000012
#00012:12
#00112:0012000000000012
#00115:00120000
#00118:0000001200001200
#0011c:0012
#00116:0000000000120000
#0021b:1212120000000000
#00215:0000001212120000
#00219:0000000000001212
#0061c:12
#0061a:0012000000000000
#00618:00120012
#00612:0000001200000000
#00614:0012
#00616:0000000000120012
#0071b:13000013
#00712:1300001300000013
#00718:0013
#00715:0000000000130000
#00815:2300001313000000
#00818:1300000000000013
#00810:41
#01017:0013000000130000
#01012:0013000000130000
#0101b:00130000
#01016:00130000
#00915:0000001300001300
#0091b:0000000000130000
#00912:0013
#00918:1300000000000013
#0111b:0000001313000000
#01112:0000000000001313
#01118:0000000000000013
#01115:0000001313000000
#0121b:0013130000000000
#01212:00000000000000130000000000001300
#01218:00000000000000130000000000001300
#01215:00130000
#02212:1300001300000000
#02212:13
#02217:0000000000000013
#0221b:0013
#02512:14130000
#0251b:0000001300230000
#02518:00130000
#02515:0000001300000000
#0251a:14
#02516:0000000000230000
#02519:0000000000000023
#02514:0000000000000023
#02618:0000001300000013
#0261b:00001313
#02615:0000000000130000
#02612:0023000013001300
#02617:0023000000000000
#0271b:13130000
#02715:00130000
#02712:1300001300230000
#02718:0000001300000000
#02717:0000000000230000
#02714:0000000000000023
#02719:0000000000000023
#02710:41
#0291b:00130000
#02915:00130000
#02912:12
#03017:0013
#03016:00000013
#03014:0000000000130000
#03019:0000001300000013
#03012:0013
#0301b:00000013
#03117:13
#03112:1313
#0311b:0000001313000013
#03114:00000013
#03212:13000023
#03215:0013000013000000
#03218:00000000130000000033333300000000
#0321b:0000001300002300
#06512:2313000000131313
#06514:0000131300000000
#06517:00000014
#0651a:24
#06614:0013130000000000
#06612:0000001313000000
#0661b:00000013
#06616:00000013
#0671b:2313000000131313
#06719:0000131300000000
#06715:0000000000000014
#06712:24
#0681b:0013131300001300
#06818:0000000000130000
#06914:23130000
#06912:0013001300001300
#06915:0000000000130013
#06917:24
#06910:41
#07012:0013001300001300
#07014:0000000000130013
#0701b:0013000000000000
#07017:0014
#07015:00130000
#07112:0013131300131313
#0711b:13
#0131b:1313
#01315:13130013
#01412:00000013
#0141b:13000013
#01414:00130000
#01419:00130000
#04212:0014
#04216:0014
#02317:00130013
#02316:1313
#0231b:1313
#02312:00130013
#01615:0000001300000000
#01618:0000000000000013
#0161b:13
#01612:0013
#01816:0013000000130000
#0181b:0013000000130000
#01812:00130000
#01817:00130000
#01715:0000001300000013
#0171b:1313
#01712:0000000000130000
#01718:00000013
#01710:41
#01915:0000001300000013
#0191b:0000001300001313
#01918:0013
#01912:0013
#02012:0013130000000000
#0201b:00000000000000130000000000001300
#02015:00000000000000130000000000001300
#02018:00130000
#02112:1313
#02115:0000131300000000
#0211b:0013001300000013
#02118:1300000000130000
#02116:0000000000000013
#00319:12001212
#00313:0012121200000000
#00315:0000000000120012
#0241b:13
#0241c:0012
#02412:0000002c
#0371b:00130013
#03718:0000001300000000
#0371c:12
#03712:00130013
#03715:0000001300000000
#0371a:0000000000330033
#03713:0000000000330033
#03912:1300001313000013
#0391b:13000013
#03917:0013
#03910:41
#04017:130000130000000000000000000000000034000000000000
#0401b:0000131300000000
#04012:13
#04016:000000130000000034000000
#04013:000000000000000000000000003400000000000000000000
#04014:000000000000003400000000
#04015:0000000000340000
#04317:13
#0431a:13
#04318:00000013
#0441b:0013
#04412:0013
#04518:14
#04514:14
#04513:0013
#0451a:0013
#0461a:14
#04612:14
#04618:0013
#04615:0013
#04714:00140000
#04718:00140000
#04719:0034000000000000
#04713:0034000000000000
#04912:1400130000230023
#04917:00130000
#04916:0000001300000000
#0491b:0000001300230000
#0491a:14
#04918:00000013
#0491f:21
#0501b:0023001300000000
#05018:0000000013000013
#05012:0000000000130000
#05015:13000013
#0521c:0000001200000012
#05212:0023000000120000
#05218:1300000000120000
#05216:0000001200000012
#0521a:0012
#05214:00000012
#05317:00130000
#05312:00130000
#0531a:12
#05412:0000000000130013
#0541b:0000001300130000
#05418:0000000013000013
#05415:0000001300001300
#05516:13
#0551b:13000013
#05518:0000130000130000
#05512:0000001300130013
#05515:00131300
#0561b:13000023
#05615:13000000000000000033333300000000
#05619:00130000
#05612:0000001300002300
#0561a:0013000000000000
#05618:0000001313000000
#05613:00130000
#05614:0013000000000000
#0631b:0000001300130013
#06317:13
#06312:13000013
#06315:0000130000130000
#06318:00131300
#0731a:14
#07312:24
#07216:0014
#07212:0013131313000000
#07215:00000013
#04812:0000001300002300
#04815:0000000000130000
#0481b:00001323
#0411f:11
#0411a:24
#04115:24
#0041c:12120012
#00416:0012000000000012
#00412:0000001200120000
#00418:0012
#0051c:1212
#00512:0012001200000012
#00518:00120000
#00515:0000000000120000
#00519:00000012
#02815:0000001200120012
#0281c:00000012
#02819:0000001200120012
#02812:0012
#02816:0023000000000000
#0281b:0023000000000000
#0331b:00130000
#03312:1400001300000000
#03315:00130000
#03318:0000001300000000
#0331a:1400000000240000
#03314:0000000000240000
#03319:0000000000000024
#03313:0000000000000024
#03415:0000001300000013
#03412:0024000013130000
#0341b:0000000013130000
#03418:0024000000001300
#03512:1300130000240000
#03518:0000130000240000
#0351b:1300001300000000
#03515:0000001300000000
#03513:0000000000000024
#03519:0000000000000024
#03619:0000001200120012
#03612:00000012
#03615:0000001200120012
#0361c:0012
#03614:0024000000000000
#0361a:0024000000000000
#03817:0013
#0381b:00000013
#03819:0000000000130000
#03814:0000001300000013
#03812:0013
#03816:00000013
#0511a:14
#05116:00130000
#05117:0000001300000000
#0511b:0000130000230023
#05112:1400001300230000
#05115:00000013
#05110:41
#0571a:1400000000240024
#05716:00130014
#05717:0000001300000000
#0571b:00130000
#05712:1400001300240000
#05812:0024001300000000
#05815:0000000013000013
#0581b:0000000000130000
#05818:00000013
#05816:14
#06012:0000001200000012
#0601c:0000000000120000
#06016:1400000000120000
#06018:0000001200000012
#06014:0012
#0601a:0024000000001200
#06112:00130013
#0611b:00130013
#06114:12
#06115:0000001300000000
#06118:0000001300000000
#06113:0000000000330033
#0611a:0000000000330033
#05912:1400130000240024
#05917:00130000
#05916:0000001300001400
#0591b:0000001300000000
#0591a:1400000000240000
#06416:1313000000000000
#06412:0000131300000000
#0641b:13
#06417:000000000000130000000000003400000000000000000000
#06418:000000000000000000000000000034343400000000000000
#06419:000000000000000000000000000000000034000000000000
#06415:000000000000000000000000000000000034000000000000
#06414:000000000000000000000000000034343400000000000000
#06413:000000000000000000000000003400000000000000000000
#0621b:0000000000130013
#06212:0000001300130000
#06215:0000000013000013
#06218:0000001300001300
#0151a:0000000000000033
#01519:00000033
#01518:0000000000330000
#01517:0033
#01516:0000000000000033
#01515:00000033
#01514:0000000000330000
#01513:0033
#00752:13
#0075b:13
#03252:00000033
#0325b:00000043
#01258:00000000000000230000000000000000
#0125b:00530000
#01252:00000000000000230000000000000000
#01255:00530000
#0135b:2323
#01355:00530053
#0315b:0053
#03152:53
#04252:0054
#04256:0054
#06957:54
#0705b:0053000000000000
#07057:0054
#0715b:53
#00958:63
#0105b:00630000
#01057:0000000000230000
#01052:0000000000230000
#01056:00630000
#01152:0000000000000053
#0115b:0053
#0235b:5353
#02356:5353
#02357:00530053
#02352:00530053
#0175b:63
#01856:0000000000230000
#01852:00530000
#0185b:0000000000230000
#01857:00530000
#01952:0063
#0195b:0000000000000063
#02055:00000000000000230000000000000000
#02052:00630000
#0205b:00000000000000230000000000000000
#02058:00630000
#00855:0063
#00858:63
#0165b:53
#01652:0053
#02152:0023
#0215b:0023000000000000
#02158:53
#02155:0000005300000000
#02452:0000003c
#0245c:0022
#0245b:53
#03758:0000005300000000
#0375b:00000023
#03752:00000023
#03755:0000006300000000
#03952:0063
#0395b:63
#0435a:53
#04357:53
#04358:00000023
#04554:54
#04558:54
#04553:0053
#0455a:0053
#04452:0023
#0445b:0023
#0465a:24
#04652:24
#04658:0053
#04655:0053
#04758:00540000
#04754:00540000
#0555b:53
#05555:0053
#05552:0000000000230000
#05558:00230000
#0735a:54
#07352:54
#07256:0054
#04852:00000033
#0485b:00000043
#0655a:54
#06557:00000024
#06752:54
#06755:0000000000000024
#01452:00000053
#0145b:00000053
#06352:63
#06358:0063
#0635b:0000000000230000
#06355:00230000
#05155:00000023
#05152:0000000000530000
#0515b:0000000000000063
#05258:23
#05252:0033000000000000
#0525b:0043000000000000
#05756:00000024
#05752:0000000000540000
#0575a:0000000000000064
#05856:24
#05852:0034000000000000
#0585a:0044000000000000
#06852:00000014
#0415a:54
#04155:54
#04058:00000014
#06456:00000014
#0645a:00000014
#02657:0043000000000000
#02652:0033000000000000
#02856:0033000000000000
#0285b:0043000000000000
#03458:0044000000000000
#03452:0034000000000000
#03654:0034000000000000
#0365a:0044000000000000
#04958:00000023
#0495b:0000000000630000
#04952:0000000000000053
#05055:23
#0505b:0043000000000000
#05052:0033000000000000
#05956:00000024
#0595a:0000000000640000
#05952:0000000000000054
#06056:24
#0605a:0044000000000000
#06052:0034000000000000
#0565b:00000043
#05652:00000033
#06152:00000023
#06155:0000006300000000
#0615b:00000023
#06158:0000005300000000
#01558:13
#01555:13
#008380:13
#0083b0:0000003323000000
#008351:0013
#008321:0000000000000033
#009321:23
#009380:13
#0093b0:0000002300000000
#0103b0:00130000
#010370:0000000000530000
#0113b0:23
#010361:00130000
#010321:0000000000530000
#011361:23
#0113b1:0013
#011381:00000023
#011321:0000000000000013
#012351:0023000000000000
#0123b1:0000130000230000
#012381:00000000000000530000000000000000
#012350:0000130000230000
#012320:00000000000000530000000000000000
#0133b0:13
#013380:00230000
#013351:00130000
#013321:0023
#0133b0:0013
#013380:00000023
#013351:00000013
#014321:23
#014321:00001353
#014351:0000000000000033
#015351:23
#0143b0:00001353
#014380:0000000000000033
#015380:23
#015320:0000001300000000
#015330:0033
#015340:0000000000330000
#015350:00000033
#015360:0000000000000033
#016370:23
#015361:0000001300000000
#015371:0033
#015381:0000000000330000
#015391:00000033
#0153a1:0000000000000033
#0163b1:33
#016381:0000003323000000
#016320:0013
#016350:0000000000000033
#017350:23
#0173b1:13
#017381:0000002300000000
#018321:00130000
#018361:0000000000530000
#019321:23
#018370:00130000
#0183b0:0000000000530000
#019370:23
#019320:0013
#019350:00000023
#0193b0:0000000000000013
#020380:0023000000000000
#020320:0000130000230000
#020350:00000000000000530000000000000000
#020381:0000130000230000
#0203b1:00000000000000530000000000000000
#021381:13230000
#0213b1:0053000000000000
#021351:0000001300230000
#021321:0053
#022371:13
#0223b1:0000002300000000
#022361:0013
#022321:0000000000000023
#0233b1:1333
#023371:00330033
#0243b1:33
#0243c1:00525200
#024321:0000002c
#023360:1333
#023320:00330033
#024360:23
#029381:0000001323000000
#029320:0000001323000000
#029350:0000000000132300
#0293b1:0000000000132300
#029381:0000000000000013
#030381:23
#029320:0000000000000013
#030320:23
#030350:0013230000000000
#0303b1:0013230000000000
#031321:13
#031361:0000002300000000
#0313b1:0013
#031371:00000023
#032381:00000000000000001333333300000000
#0323b1:00000023
#037381:0000001300000000
#0373a1:0000000000330033
#0373b1:00000053
#038381:0023000000000000
#037350:0000001300000000
#037330:0000000000330033
#037320:00000053
#038350:0023000000000000
#0393b0:13
#039370:0000002300000000
#039320:0013
#039360:00000023
#040320:0014
#040330:000000000000000000000000003400000000000000000000
#040340:000000000000003400000000
#040350:0000000000340000
#040360:000034
#040370:000000000000000000000000000000000034000000000000
#040380:00000024
#041350:14
#042320:0034
#043370:33
#044320:0033
#045340:34
#045330:0053
#046320:34
#046350:0033
#047320:34
#047330:0034000000000000
#047340:00340000
#048350:23
#0413a1:14
#042361:0034
#0433a1:33
#043381:00000053
#0443b1:0033
#045381:34
#0453a1:0053
#0463a1:34
#046381:0033
#0473a1:34
#047391:0034000000000000
#047381:00340000
#048381:23
#0493b1:0000000000130023
#049381:00000033
#049320:0000000000000013
#050350:33
#050320:0023000000000000
#051320:0000000000130023
#051350:00000033
#0513b1:0000000000000013
#052381:33
#0523b1:0023000000000000
#053361:0000001323000000
#0533b0:0000001323000000
#053370:0000000000132300
#053321:0000000000132300
#053361:0000000000000013
#054361:23
#0533b0:0000000000000013
#0543b0:23
#054370:0013230000000000
#054321:0013230000000000
#0553b1:1323
#055381:00530000
#055350:00001323
#055320:0000000000530000
#056350:00000000000000001333333300000000
#056320:00000023
#057320:0000000000140024
#057360:00000034
#0573a1:0000000000000014
#058361:34
#0583a1:0024000000000000
#0593a1:0000000000140024
#059361:00000034
#059320:0000000000000014
#060360:34
#060320:0024000000000000
#061350:0000001300000000
#061330:0000000000330033
#061320:00000053
#062350:0023000000000000
#061381:0000001300000000
#0613a1:0000000000330033
#0613b1:00000053
#062381:0023000000000000
#063321:1323
#063351:00530000
#063380:00001323
#0633b0:0000000000530000
#064320:0014
#064330:000000000000000000000000003400000000000000000000
#064340:000000000000000000000000000034343400000000000000
#064350:000000000000000000000000000000000034000000000000
#064360:00000024
#064361:0014
#064371:000000000000000000000000003400000000000000000000
#064381:000000000000000000000000000034343400000000000000
#064391:000000000000000000000000000000000034000000000000
#0643a1:00000024
#0653a1:14
#065371:00000054
#0663a1:0024
#067321:14
#067351:0000000000000054
#068321:00000024
#069371:14
#0703b1:0053000000000000
#070371:0054
#0713b1:53
#072361:0054
#0733a1:54
#074381:0053
#075381:23
#073320:14
#074350:0053
#075350:23
