This file was generated by Ched 2.6.2.0.
#TITLE "Tell your world"
#ARTIST ""
#DESIGNER ""
#DIFFICULTY 0
#PLAYLEVEL
#SONGID ""
#WAVE ""
#WAVEOFFSET 0
#JACKET ""
#REQUEST "ticks_per_beat 480"
#00002: 4
#BPM01: 150
#00008: 01
#TIL00: ""
#HISPEED 00
#MEASUREHS 00
#00018:12120000
#00016:0012001200001200
#0001a:0000000000120012
#00114:0012001200000000
#00118:00120000
#0011a:0000000000120012
#00116:00000012
#00714:00000013
#00713:0013
#0071a:0000001300000000
#00718:0000000000000013
#00719:0000000000130000
#01012:0014140000000000
#01016:0000000000140000
#00915:1300000000130000
#00918:00000013
#0091b:0013
#00912:0000000000000013
#0111b:0000001313000000
#01112:0000000000000013
#02512:1600000000240000
#02515:0000131300000000
#0251b:0000131300000000
#02518:0000000000000024
#02819:0000001212000000
#02815:0000001212000000
#02813:00000012
#0281b:00000012
#02818:0024000000000000
#02919:12
#02915:12
#02918:00120000
#02914:00120000
#0301a:00000013
#03014:0000000000130000
#03016:0000000000000013
#03012:0000001300000000
#03018:0013
#0311b:13
#03112:0013
#03214:13
#03219:13000025
#03213:00130000
#0321a:00130000
#03212:00000025
#00815:13
#00818:0013
#00810:41
#01312:13
#01318:13
#0131b:0013
#01315:0013
#01212:0000000000000013
#0121b:00130000
#01218:0000000000000013
#02316:00140014
#0231a:1414
#02218:0013
#02215:13
#01415:13000013
#01418:00130013
#01414:0000000000000033
#01419:0000000000000033
#0161b:13
#01612:0013
#01715:00000013
#01718:0000000000130000
#01712:0013
#0171b:1300000000000013
#01710:41
#02115:1300000000000013
#0211b:0000000000000013
#02118:0000130000130000
#02112:0000001300130000
#0241a:0014
#02412:0000002c
#03312:1400130000240000
#0331b:0000001300000000
#03318:00130000
#03315:0000001300000000
#0331a:1400000000000024
#03719:0000001300000000
#0371b:0000000000130000
#03714:0000001300000000
#03712:0000000000130000
#03818:0013
#03816:0000000000000013
#03812:0000001300000000
#03814:0000000000130000
#0381a:00000013
#0381b:0013000000000000
#03815:0013000000000000
#04019:13
#04013:000000000000130000000000000034340000000000000000
#0401a:00130000
#04014:130000000000000000000000000000003434000000000000
#04012:000000000000000000000000003400000000000000000000
#04912:1400130000000023
#0491b:0000001300230000
#04918:0000130000000023
#04915:0000001300230000
#0491a:14
#0491f:21
#0501a:0000001414000000
#05014:0000000000140000
#05018:00000014
#05012:0000000000000014
#05015:0023000000000000
#0501b:0023000000000000
#05116:14
#05115:0000130000000023
#05112:0000001300230000
#05118:0000001300230000
#0511b:0000130000000023
#05110:41
#05219:0000001200001200
#05214:0012
#0521a:0012
#05215:0000001200001200
#05218:0023000000000000
#05212:0023000000000000
#0531c:12
#05312:12
#0531a:00130000
#05315:00130000
#05418:0013
#05416:0000000000000013
#05412:0000001300000000
#05414:0000000000130000
#0541a:00000013
#0551a:14
#05512:0014
#05614:13
#0561b:00130000
#05612:00130025
#05619:13000025
#04814:0000001313140000
#04819:0000001313002500
#04818:0000000000140000
#04812:00000025
#06516:00000014
#0651a:24
#06716:00000014
#06712:24
#0181a:0014140000000000
#01816:0000000000140000
#01912:0000001313000000
#0191b:0000000000000013
#02012:00130000
#0201b:0000000000000013
#0391b:13
#03912:0013
#03910:41
#04116:00000014
#0411f:11
#0411a:24
#04316:00000014
#04312:24
#04516:00000014
#0451a:24
#0471a:14
#04712:24
#0571a:14
#0571b:0000130000000023
#05712:1400001300230000
#05715:0000130000000023
#05718:0000001300230000
#05812:0023001414000000
#05818:0023000000140000
#05814:00000014
#0581a:0000000000000014
#05916:14
#05918:0000130000000023
#0591b:0000001300230000
#05915:0000001300230000
#05912:0000130000000023
#06215:0013
#06217:0000000000000013
#0621b:0000001300000000
#06219:0000000000130000
#06213:00000013
#06212:0013000000000000
#06218:0013000000000000
#06312:14
#0631a:0014
#06412:1314
#06419:000000000000130000000000003400000034000000000000
#06414:000000000000130000000000000034143400000000000000
#0641b:13
#0641a:0014
#06418:000000000000000000000000000034143400000000000000
#06413:000000000000000000000000003400000034000000000000
#0611b:0000000000130000
#06119:0000001300000000
#06112:0000000000130000
#06114:0000001300000000
#06614:00000013
#06619:00000013
#0711a:14
#07118:00000013
#07112:14
#07115:00000013
#06918:00000013
#06915:00000013
#0691a:24
#06912:24
#06910:41
#07418:13
#07415:13
#0731a:14
#07312:14
#00612:13
#00619:0034000000340000
#00618:00343400
#06814:00000013
#06819:00000013
#00315:0000000012120000
#00319:0000000000001212
#00314:12
#0031a:0012001200000000
#00316:00120000
#00515:0000000012120000
#00519:0000000000001212
#00514:12
#0051a:0012001200000000
#00516:00120000
#02612:0000001414000000
#02618:0000000000140000
#02614:0024000000001400
#0261a:0000000000000014
#02716:14
#02718:0000131300000000
#02712:0000131300000000
#0271a:0000000000240000
#02714:0000000000000024
#02710:41
#0341a:0000001414000000
#03414:0000000000140000
#03418:00000014
#03412:0000000000000014
#03416:0024000000000000
#03516:14
#0351b:00130000
#03512:0000001300000024
#03515:00130000
#03518:0000001300000000
#0351a:0000000000240000
#00213:12120000
#00218:0012000000000012
#0021b:0000001200120000
#00216:0012
#00214:00000012
#00413:12120000
#00418:0012000000000012
#0041b:0000001200120000
#00416:0012
#00414:00000012
#03615:0000001200000000
#03619:0000001200000000
#03616:0024000000000000
#06014:0000001300000000
#06019:0000001300000000
#06015:0023000000000000
#0601b:0023000000000000
#01519:0033
#01513:0033
#01514:0000000000330000
#01515:00000033
#0151a:0000000000330000
#0151b:00000033
#01352:23
#0135b:0023
#01355:0053
#01358:63
#03152:0053
#0315b:53
#00955:53
#01052:00640000
#01056:0000000000240000
#0125b:00530000
#01152:0000000000000053
#0115b:0053
#0235a:5454
#02356:00540054
#02258:0023
#02255:23
#0175b:63
#00858:0053
#00855:53
#01652:0053
#0165b:63
#02452:0000003c
#0245a:0024
#03759:0000005300000000
#0375b:0000000000230000
#03754:0000006300000000
#03752:0000000000230000
#0555a:54
#05552:0054
#0655a:54
#06556:00000024
#06752:54
#06756:00000024
#04854:0000000053240000
#04858:0000000000240000
#04859:00005315
#04852:00000015
#01856:0000000000240000
#0185a:00540000
#01952:0063
#0195b:0000000000000063
#02052:00630000
#0395b:53
#03952:0053
#0415a:64
#04156:00000024
#04356:00000024
#04352:54
#04556:00000024
#0455a:64
#04752:54
#0475a:54
#05055:0013000000000000
#0505b:0013000000000000
#05258:0013000000000000
#05252:0013000000000000
#06352:64
#0635a:0064
#05858:0013000000000000
#05852:0013000000000000
#06055:0013000000000000
#0605b:0013000000000000
#0615b:0000000000230000
#06159:0000006300000000
#06152:0000000000230000
#06154:0000005300000000
#06452:00005434
#0645a:00005444
#06458:0000000000240000
#06454:0000000000240000
#0695a:64
#06958:00000023
#06955:00000023
#06952:54
#0715a:64
#07158:00000023
#07152:54
#07155:00000023
#07458:63
#07455:53
#0735a:24
#07352:24
#0075a:14
#02654:0014000000000000
#02858:0014000000000000
#03259:00000015
#03252:00000015
#03456:0014000000000000
#03656:0014000000000000
#05659:00000015
#05652:00000015
#04055:00000014
#01455:00000023
#01458:00000023
#01552:33
#0155b:43
#0063a0:1400000000003434
#006390:0034000000340000
#006380:00343400
#006370:0000003400000000
#0073a0:24
#008350:13
#008320:0000002300000000
#008380:0013
#0083b0:0000000000000023
#009350:13
#009320:0000002300000000
#010320:00140000
#010360:0000000000540000
#011320:24
#0113b0:0013
#011380:00000023
#011320:0000000000000013
#012350:0023000000000000
#0123b0:00130000
#012380:0000000000230000
#013320:13
#013350:00230000
#013381:13
#0133b1:00230000
#0133b1:0013
#013381:00000023
#013350:0013
#013320:00000023
#014350:00001353
#014340:0000000000000033
#015320:23
#014381:00001353
#014391:0000000000000033
#0153b1:23
#015381:0000001300000000
#015391:0033
#0153a1:0000000000330000
#0153b1:0000000000003323
#015320:0000001300000000
#015330:0033
#015340:0000000000330000
#015350:0000000000003323
#0163b0:13
#016380:0000002300000000
#016320:0013
#016350:0000000000000023
#0173b0:13
#017380:0000002300000000
#0183a0:00140000
#018360:0000000000540000
#0193a0:24
#019320:0013
#019350:00000023
#0193b0:0000000000000013
#020380:0023000000000000
#020320:00130000
#020350:0000000000230000
#022350:13
#022320:0000002300000000
#022380:0013
#0223b0:0000000000000023
#0233a0:1434
#023360:00340034
#0243a0:3454
#024320:0000002c
#029340:0000001200220000
#029381:0000001200220000
#029361:0000000000000012
#030361:0022000000000000
#0293a0:0000000000000012
#0303a0:0022000000000000
#0313b0:13
#031380:0000002300000000
#031320:0013
#031350:00000023
#032330:00000000000000001434340000000000
#032320:00000025
#032391:00000000000000001434340025000000
#036391:00001222
#036350:00001222
#037330:12220000
#0373b1:12220000
#037391:0000001300000000
#0373b1:0000000000330000
#037381:0000000000000023
#037340:0000001300000000
#037320:0000000000330000
#037350:0000000000000023
#0393b0:13
#039380:0000002300000000
#039320:0013
#039350:00000023
#040320:000000000000000000000000143400000000000000000000
#040330:000000000000000000000000000034340000000000000000
#040340:000000000000000000000000000000003434000000000000
#040350:00000024
#0413a0:14
#041360:00000054
#0423a0:0024
#043320:14
#043360:00000054
#044320:0024
#0453a0:14
#045360:00000054
#0463a0:0054
#0473a0:54
#048380:23
#047321:14
#048351:23
#048341:0000000013540000
#048321:00000025
#048390:00001325
#048380:0000000000540000
#053350:0000001300230000
#0533a1:0000001300230000
#053381:0000000000000013
#054381:0023000000000000
#053330:0000000000000013
#054330:0023000000000000
#0553a0:14
#055370:0000002400000000
#055320:0014
#055350:00000024
#056340:00000000000000001333330000000000
#056320:00000025
#056391:00000000000000001333330025000000
#060341:00001323
#060390:00001323
#0613b0:13230000
#061321:13230000
#061391:0000001300000000
#0613b1:0000000000330000
#061381:0000000000000023
#061340:0000001300000000
#061320:0000000000330000
#061350:0000000000000023
#063320:14
#063350:0000002400000000
#0633a0:0014
#063370:00000024
#064320:00001424
#064330:000000000000000000000000003400000034000000000000
#064340:000000000000000000000000000034343400000000000000
#0643a1:00001424
#064391:000000000000000000000000003400000034000000000000
#064381:000000000000000000000000000034343400000000000000
#0653a1:14
#065361:00000054
#0663a1:0024
#067321:14
#067361:00000054
#068321:0024
#0693a1:14
#069381:00000053
#0703a1:0054
#0713a1:54
#071381:00000053
#0723a1:0054
#0733a1:54
#074381:5352
#075381:22
#069320:14
#069350:00000053
#070320:0054
#071320:54
#071350:00000053
#072320:0054
#073320:54
#074350:53
#074360:0052
#075360:22
