This file was generated by Ched 2.6.2.0.
#TITLE "Tell your world"
#ARTIST "exp"
#DESIGNER ""
#DIFFICULTY 0
#PLAYLEVEL
#SONGID ""
#WAVE ""
#WAVEOFFSET 0
#JACKET ""
#REQUEST "ticks_per_beat 480"
#00002: 4
#BPM01: 150
#00008: 01
#TIL00: ""
#HISPEED 00
#MEASUREHS 00
#00016:00120000
#00014:0012000000000000
#00018:0000001200000000
#00015:0000000000120000
#00017:12000012
#00019:0000000000000012
#00012:12
#00116:0012000000120000
#00118:00120012
#0011a:0000001200000000
#0011c:0012
#00112:0000000000000012
#00216:1200001212120000
#0021c:1212120000000000
#0021a:0000001200001212
#00214:00000012
#00618:0012001200000000
#00614:00120000
#00612:0000001200000000
#00619:00000012
#00617:0000000000000012
#0061a:0000000000120000
#0061c:12
#00616:1212
#00615:00000012
#0071b:1300000013000013
#00712:1300000013000013
#00718:0000001300001300
#00715:0000000000130000
#0091b:0000130000000013
#00915:0000000013130000
#00912:0000001300001300
#00916:0000130000000013
#00918:13
#0091a:0000003300000000
#01116:0000001313000000
#0111b:0013
#01117:0000000000000013
#01112:0000001300000013
#01214:0000000000000013
#0121b:00130000
#01219:0000000000000013
#01217:00000000000000130000000000000000
#01216:00130000
#01212:00000000000000130000000000000000
#0421a:0000001400000014000000140000001413001300130013001300130013001300
#04213:14141414141414141300000000000000
#04214:0014000000140000001400000014000000000000000000000000000000000000
#04212:0000001400000014000000140000001400000000000000000000000000000000
#04219:1400140014001400140014001400140000130000001300000013000000130000
#04218:0014000000140000001400000014000000000000000000000000000000000000
#0421b:0000000000000000000000000000000000000013000000130000001300000013
#04216:00000013
#01018:0013000000000000
#01012:000000130000000000000000130000000000000013000000
#01019:000000130013001300130013
#0101b:001313
#01017:000000130013
#01014:000000130013001300130013
#01016:001313
#01312:1300001300130000
#0131b:13130013
#01318:0013001300130013
#01315:00131313
#01414:00130000
#01419:00130000
#01418:0000000000130013
#01415:13000000000000000000130000000013
#01412:0013
#0141b:1313
#0031a:12000012
#00314:0012121200001200
#00318:0012000012000012
#00312:0012
#00315:0000000000120000
#0041a:0012001200000000
#00418:00121212
#00416:1200000000120012
#0041c:12
#00512:0000001212000000
#00514:12120000
#00516:0012000000120000
#00515:00000012
#00518:0000000012000012
#00519:00000012
#04317:00000013
#0431a:13
#04313:13131313131313131313131313131313
#04314:0013000000130000001300000013000000130000001300000013000000130000
#04312:0000001300000013000000130000001300000013000000130000001300000013
#04413:13131313131313131300000000000000
#04414:0013000000130000001300000013000000000000000000000000000000000000
#04412:0000001300000013000000130000001300000000000000000000000000000000
#0441a:00000000000000001313131313131313
#04419:0000000000000000000000000000000000130000001300000013000000130000
#0441b:0000000000000000000000000000000000000013000000130000001300000013
#04416:00000013
#04517:00000013
#0451a:13
#04513:13131313131313131313131313131313
#04514:0013000000130000001300000013000000130000001300000013000000130000
#04512:0000001300000013000000130000001300000013000000130000001300000013
#0471a:14140000
#04712:14140000
#04716:00000000000000000000000000000000000000000000000000000000000000000000000000000000000000000000000000000000000000000000000000000000000000000000000000000000000000001414000000000000000000000000000000000000000000000000000000000000000000000000000000000000000000000000000000000000000000000000000000000000000000000000000000000000000000000000000000000000000000000000000000000000000000000000000000000000000000000000000000000000000000000000000000000000000000000000000000000000000000000000000000000000000000000000000000000000000000000000000000000000000000000000000000000000000000000000000000000000000000000000000000000000000000000000000000000000000000000000000000000000000000000000000000000000000000000000000000000000000000000000000000000000000000000000000000000000000000000000000000000000000000000000000000000000000000000000000000000000000000000000000000000000000000000000000000000000000000000000000000000000000000000000000000000000000000000000000000000000000000000000000000000000000000000000000000000000000000000000000000000000000000000000000000000000000000000000000000000000000000000000000000000000000000000000000000000000000000000000000000000000000000000000000000000000000000000000000000000000000000000000000000000000000000000000000000000000000000000000000000000000000000000000000000000000
#0491a:14
#04912:1400000013000013
#0491b:0000130000230000
#04916:0014001400230000
#04914:00140000
#04918:0000000013000023
#0491f:21
#04613:13131313131313131300000000000000
#04614:0013000000130000001300000013000000000000000000000000000000000000
#04612:0000001300000013000000130000001300000000000000000000000000000000
#04616:00000013
#0461a:00000000000000001313131313131313
#0461b:0000000000000000000000000000000000130000001300000013000000130000
#04619:0000000000000000000000000000000000000013000000130000001300000013
#04812:0000001314002600
#0481b:0000001300000000
#0481a:0014
#04818:000000000000000000000000000033123232260000000000
#04816:000000000000000000000000000000123232000000000000
#04819:000000000000000000000000003300000000000000000000
#04814:000000000000000000000000003300000000000000000000
#04815:000000000000003300000000
#02512:1400000013231300
#0251b:0000130000230013
#02519:0000001300000000
#02516:00130000
#0251a:14
#02517:0013
#02518:00000013
#02514:0000000000000023
#02819:13000012
#0281a:0012
#02817:0023001200000000
#02814:00000012
#02815:1312
#0281c:0000000000000012
#02812:0000000000120000
#0291a:12
#02915:12
#02914:00120000
#02919:00120000
#02912:0012000000000000
#03312:1400000013230000
#0331a:14
#0331b:00130013
#03314:0000001300001300
#03316:00130000
#03317:0013
#03318:0000000000230013
#03315:0000000000000023
#0151b:1300000013000013
#01512:1300000013000013
#01515:0000001300001300
#01518:0000000000130000
#02217:1300000000000013
#02212:0000000000000013
#02216:0000001313000000
#0221b:0000001300000000
#0231b:13
#02316:1313
#02317:00130013
#02319:0013000000130000
#02314:0000001300000013
#02412:0000000000000000333300001300000000002c0000000000
#02416:133300000000
#0241b:13
#0241a:003300000000000000000000000000000000000000000000
#02418:003300000000000000000000
#02417:0033000000000000
#02415:000000000033000000000000000000000000000000000000
#02414:00330000
#02413:000000000000003300000000000000000000000000000000
#04113:24141414141414141414141414141414
#04114:0014000000140000001400000014000000140000001400000014000000140000
#04112:0000001400000014000000140000001400000014000000140000001400000014
#04119:24141414141414141414141414141414
#04118:0014000000140000001400000014000000140000001400000014000000140000
#0411a:0000001400000014000000140000001400000014000000140000001400000014
#0411f:11
#0651a:23131313131313131313131313131313
#0651b:0000001300000013000000130000001300000013000000130000001300000013
#06516:0000001300001300
#06512:2300130000130013
#06519:0013000000130000001300000013000000130000001300000013000000130000
#0661a:13131313131313130000000000000000
#0661b:0000001300000013000000130000001300000000000000001300000013000000
#06616:00001300000013002313131313131313
#06619:0013000000130000001300000013000000000000000000000000000000000000
#06615:0000000000000000000000000000000000130000001300000013000000130000
#06617:0000000000000000000000000000000000000013000000130000001300000013
#06612:00130000
#0691a:23131313131313131313131313131313
#0691b:0000001300000013000000130000001300000013000000130000001300000013
#06915:0000001300000000
#06912:2300000000000013
#06919:0013000000130000001300000013000000130000001300000013000000130000
#06914:00000033000000000000003300000000
#06910:41
#0701a:13130000000000002313131313131313
#0701b:0000001300000000000000000000000000000013000000130000001300000013
#07013:00002313131313130000000000000000
#07012:0000000000000013000000130000001300000000000000000000000000000000
#07015:00000013
#07019:0013000000000000000000000000000000130000001300000013000000130000
#07014:0000000000130000001300000013000000000000000000000000000013000000
#07018:00130000
#07113:23131313131313131313131313131313
#07112:0000001300000013000000130000001300000013000000130000001300000013
#07114:0013000000130000001300000013000000130000001300000013000000130000
#0711b:0000001300000000
#07118:0000000000000013
#0711a:00000000000000000000003300000000
#07119:00000033000000000000000000000000
#07213:13131313131313130000000000000000
#07212:0000001300000013000000130000001300000000000000000000000000000000
#0721a:00000000000000002313131313131313
#0721b:0000000000000000000000001300000000000013000000130000001300000013
#07215:00000013
#07214:0013000000130000001300000013000000000000000000000000000013000000
#07219:0000000000000000000000000000000000130000001300000013000000130000
#07218:00000033000000000000000000000000
#07319:1400001400000013
#07313:2400001400000000
#07314:0000000000000013
#01712:1300000000000013
#01715:0000130000130000
#0171b:00131313
#01717:0000000000000013
#01718:0000001300000000
#01714:0000003300000000
#01710:41
#01815:0013000000000000
#0181b:000000130000000000000000130000000000000013000000
#01814:000000130013001300130013
#01812:001313
#01816:000000130013
#01819:000000130013001300130013
#01817:001313
#01915:0000001300000000
#01912:0013
#01919:0000001300000000
#01917:0013
#0191b:0000000000000013
#01916:0000000000000013
#02012:00130000
#02016:00000000000000130000000000000000
#02017:00130000
#0201b:00000000000000130000000000000000
#02019:0000000000000013
#02014:0000000000000013
#03712:0000001400001400
#0371a:0000001400001400
#05016:0000001300130013
#05012:00001313
#0501b:0023000000000000
#0561b:12
#05616:12
#0561a:0012000014002400
#05615:000000120000000000000000000034143400000000000000
#05614:000000000000120000000000003400000034000000000000
#05619:00120000
#05618:000000000000000000120000003400000034000000000000
#05613:0000001200000000
#05612:00001424
#05617:000000000000000000000000000000000000000000000000000000000000000000000000000000000000000000000000000000000000000000000000000000000000000000000000000000000000000000000000000000000000000000000000000000000000000000000000000000000000000000000000000000000000000000000000000000000000000000000000000000000000000000000000000000000000000000000000000000000000000000000000000000000000000000000000000000000000000000000000000000000000000000000000000000000000000000000000000000000000000000000000000000000000000000000000000000000000000000000000000000000000000000000000000000000000000000000000000000000000000000000000000000000000000000000000000000000000000000000000000000000000000000000000000000000000000000000000000000000000000000000000000000000000000000000000000000000000000000000000000000000000000000000000000000000000000000000000000000000000000000000000000000000000000000000000000000000000000000000000000000000000000000000000000000000000000000000000000000000000000000000000000000000000000000000000000000000000000000000000000000000000000000000000000000000000000000000000000000000000000000000000000000000000000000000000000000000000000000000000000000000000000000000000000000000000000000000000000000000000000000000000000000000000000000000000000000000000000000000000000000000000000000000000000000000000000000000000000000000000000000000000000000000000000000000000000000000000000000000000000000000000000000000000000000000000000000000000000000000000000000000000000000000000000000000000000000000000000000000000000000000000000000000000000000000000000000000000000000000000000000000000000000000000000000000000000000000000000000000000000000000000000000000000000000000000000000000000000000000000000000000000000000000000000000000000000000000000000000000000000000000000000000000000000000000000000000000000000000000000000000000000000000000000000000000000000000000000000000000000000000000000000000000000000000000000000000000000000000000000000000000000000000000000000000000000000000000000000000000000000000000000000000000000000000000000000000000000000000000000000000000000000000000000000000000000000000000000000000000000000000000000000000000000000000000000000000000000000000000000000000000000000000000000000000000000000000000000000000000000000000000000000000000000000000003400000000000000000000000000000000000000000000000000000000000000000000000000000000000000000000000000000000000000000000000000000000000000000000000000000000000000001400000000000000000000000000000000000000000000000000000000000000000000000000000000000000000000000000000000000000000000000000000000000000000000000000000000000034000000000000000000000000000000000000000000000000000000000000000000000000000000000000000000000000000000000000000000000000000000000000000000000000000000000000000000000000000000000000000000000000000000000000000000000000000000000000000000000000000000000000000000000000000000000000000000000000000000000000000000000000000000000000000000000000000000000000000000000000000000000000000000000000000000000000000000000000000000000000000000000000000000000000000000000000000000000000000000000000000000000000000000000000000000000000000000000000000000000000000000000000000000000000000000000000000000000000000000000000000000000000000000000000000000000000000000000000000000000000000000000000000000000000000000000000000000000000000000000000000000000000000000000000000000000000000000000000000000000000000000000000000000000000000000000000000000000000000000000000000000000000000000000000000000000000000000000000000000000000000000000000000000000000000000000000000000000000000000000000000000000000000000000000000000000000000000000000000000000000000000000000000000000000000000000000000000000000000000000000000000000000000000000000000000000000000000000000000000000000000000000000000000000000000000000000000000000000000000000000000000000000000000000000000000000000000000000000000000000000000000000000000000
#06714:0000000000130000001300000013000000130000001300000013000000130000
#06713:00001313131313131313131313131313
#06712:0000001300000013000000130000001300000013000000130000001300000013
#06716:13
#06717:0000001300001300
#0671b:2300130000130013
#06814:0013000000130000001300000013000000130000001300000000000000000000
#06813:13131313131313131313131300000000
#06812:0000001300000013000000130000001300000013000000130000000000000000
#06817:0013001300000000
#0681b:0000130000132300
#07419:0000001200000000
#07415:0000001200000000
#02112:1300000000000013
#02117:0000000000000013
#02115:00000000331300000000000000000000
#0211b:13
#02118:00000000331300000000000000000000
#02114:0000003300000000
#02119:0000003300000000
#06112:00000000000014000014000014000014
#0611a:00000000000014000014000014000014
#06117:00130000
#06116:00000000000000000000000000000000000000000000000000000000000000000000000000000000000000000000000000000000000000000000000000000000000000000000000000000000000000000000000000000000000000000000000000000000000000000000000000000000000000000000000000000000000000000000000000000000000000000000000000000000000000000000000000000000000000000000000000000000000000000000000000000000000000000000000000000000000000000000000000000000000000000000000000000000000000000000000000000000000000000000000000000000000000000000000000000000000000000000000000000000000000000000000000000000000000000000000000000000000000000000000014140000000000000000000000000000000000000000000000000000000000000000000000000000000000000000000000000000000000000000000000000000000000000000000000000000000000000000000000000000000000000000000000000000000000000000000000000000000000000000000014140000000000000000000000000000000000000000000000000000000000000000000000000000000000000000000000000000000000000000000000000000000000000000000000000000000000000000000000000000000000000000000000000000000000000000000000000000000000000000000014140000000000000000000000000000000000000000000000000000000000000000000000000000000000000000000000000000000000000000000000000000000000000000000000000000000000000000000000000000000000000000000000000000
#02618:13
#0261b:0000001300130013
#02617:00001313
#02614:13
#02616:0023000000000000
#02717:13130000
#02712:0000130000230013
#02714:0000001300000000
#0271b:0000000013231300
#02716:0013
#02715:00000013
#02719:0000000000000023
#02710:41
#00812:0000001300001300
#00818:13
#0081b:0000130000000013
#00815:2313
#00816:00130000
#00817:00000013
#00813:0000000000000033
#0081a:0000003300000000
#00810:41
#01618:2300001300001300
#01612:13000013
#01615:0000130000000013
#0161b:00131300
#01614:0000003300000000
#01619:0000000000000033
#0301b:00001313
#03012:0000001300000000
#03014:0000000013000013
#03013:0000000000130000
#03015:00000013
#0311b:1300001300000000
#03116:1300001300001300
#03117:0000130013000013
#03112:0000000013000013
#03119:0013000000000000
#03114:0000000000130000
#03217:000000000000000000000000000034143400000000000000
#0321a:00001424
#03215:120000000000000000000000000000000000000000000000000000000000000000000000000000000000000000000000000000000000000000000000000000000000000000000000000000000000000000000000000000000000000000000000000000000000000000000000000000000000000000000000000000000000000000000000000000000000000000000000000000000000000000000000000000000000000000000000000000000000000000000000000000000000000000000000000000000000000000000000000000000000000000000000000000000000000000000000000000000000000000000000120000000000000000000000000000000000000000000000000000000000000000000000000000000000000000000000000000000000000000000000000000000000000000000000000000000000000000000000000000000000000000000000000000000000000000000000000000000000000000000000000000000000000000000000000000000000000000000000000000000000000000000000000000000000000000000000000000000000000000000000000000000000000000000000000000000000000000000000000000000000000000000000000000000000000000000000000000000000000000000000000000000000000000000000000000000000000000000000000000000000000000000000000000000000000000000000000000000000000000000000000000000000000000000000000000000000000000000000000000000000000000000000000000000000000000000000000000000000000000000000000000000000000000000000000000000000000000000000000000000000000000000000000000000000000000000000000000000000000000000000000000000000000000000000000000000000000000000000000000000000000000000000000000000000000000000000000000000000000000000000000000000000000000000000000000000000000000000000000000000000000000000000000000000000000000000000000000000000000000000000000000000000000000000000000000000000000000000000000000000000000000000000000000000000000000000000000000000000000000000000000000000000000000000000000000000000000000000000000000000000000000000000000000000000000000000000000000000000000000000000000000000000000000000000000000000000000000000000000000000000000000000000000000000000000000000000000000000000000000000000000000000000000000000000000000000000000000000000000000000000000000000000000000000000000000000000000000000000000000000000000000000000000000000000000000000000000000000000000000000000000000000000000000000000000000000000000000000000000000000000000000000000000000000000000000000000000000000000000000000000000000000000000000003400000000000000000000000000000000000000000000000000000000000000000000000000000000000000000000000000000000000000000000000000000000000000000000000000000000000000001400000000000000000000000000000000000000000000000000000000000000000000000000000000000000000000000000000000000000000000000000000000000000000000000000000000000034000000000000000000000000000000000000000000000000000000000000000000000000000000000000000000000000000000000000000000000000000000000000000000000000000000000000000000000000000000000000000000000000000000000000000000000000000000000000000000000000000000000000000000000000000000000000000000000000000000000000000000000000000000000000000000000000000000000000000000000000000000000000000000000000000000000000000000000000000000000000000000000000000000000000000000000000000000000000000000000000000000000000000000000000000000000000000000000000000000000000000000000000000000000000000000000000000000000000000000000000000000000000000000000000000000000000000000000000000000000000000000000000000000000000000000000000000000000000000000000000000000000000000000000000000000000000000000000000000000000000000000000000000000000000000000000000000000000000000000000000000000000000000000000000000000000000000000000000000000000000000000000000000000000000000000000000000000000000000000000000000000000000000000000000000000000000000000000000000000000000000000000000000000000000000000000000000000000000000000000000000000000000000000000000000000000000000000000000000000000000000000000000000000000000000000000000000000000000000000000000000000000000000000000000000000000000000000000000000000000000000000000000000000
#03212:00001424
#03219:1212131300000000
#03214:000000000000130000130000003400000034000000000000
#03218:000000000000000000000000003400000034000000000000
#03515:0000000000230013
#03512:00130013
#03516:1313
#03519:0000001300001300
#03517:00130000
#0351b:0000000013230000
#03518:0000000000000023
#03612:13
#03619:13
#0361b:0023000000000000
#03412:0023001300130013
#03416:00001313
#0341b:13
#03414:13
#03812:00001313
#0381b:0000001300000000
#03819:0000000013000013
#0381a:0000000000130000
#03818:00000013
#05112:1300130000230000
#0511b:0000000013000013
#05116:0014001400000000
#05118:00140000
#05115:0000000013000023
#05117:0000000000230000
#05110:41
#05215:00000012
#05214:0012
#05217:0000001200120012
#0521a:00000012
#05219:0012
#05212:0023000000000012
#0521c:0000000000120000
#05314:12
#05319:12
#0531a:00120000
#05315:00120000
#0531c:0012000000000000
#05317:0012000000000000
#05516:1300001300000000
#0551b:1300001300001300
#05514:0013000000000000
#05512:0000130013000013
#05517:0000000013000013
#05519:0000000000130000
#0571a:14
#05712:1400000013000023
#0571b:0000130000230000
#05717:0000000000000013
#05716:0014001400000000
#05714:00140000
#05718:0013
#05715:0000000000230000
#05816:0000001300130013
#05812:00001313
#05815:0023000000000000
#05912:1300130000230000
#05916:0014001400000013
#0591b:0000000013000023
#05918:0000140000230000
#05915:0013
#0601b:0000001300000000
#06018:0023000000000000
#06216:00000000000000000000000000000000000000001414000000000000000000000000000000000000000000000000000000000000000000000000000000000000000000000000000000000000000000000000000000000000000000000000000000000000000000000000000000000000000000000000000000000000000000000000000000000000000000000000000000000000000000000000000000000000000000000000000000000000000000000000000000000000000000000000000000000000000000000000000000000000000000000000000000000000000000000000000000000000000000000000000000000000000000000000000000000000000000000000000000000000000000000000000000000000000000000000000000000000000000000000000000000000000000000000000000000000000000000000000000000000000000000000000000000000000000000000000000000000000000000000000000000000000000000000000000000000000000000000000000000000000000000000000000000000130000000000000000000000000000000000000000000000000000000000000000000000000000000000000000000000000000000000000000000000000000000000000000000000000000000000000000000000000000000000000000000000000000000000000000000000000000000000000000000000000000000000000000000000000000000000000000000000000000000000000000000000000000000000000000000000000000000000000000000000000000000000000000000000000000000000000000000000000000000000000000000000000000000000000000000000000000000000000000000000
#06212:0000001300000013
#06217:0000001300000000
#06219:0013
#0621b:0000000000130000
#06214:00000013
#06218:0000000000000013
#03912:13000000130000000000001300000000
#03918:1300000000000013
#03915:0000001313000000
#0391b:00000013000000001300000013000000
#03916:0013000000000000
#03917:0000000000130000
#03910:41
#04012:0000001313000000
#04013:00130000
#04014:0013000000000000
#0401b:0000001300000000
#0401a:0000000000000000130000000000000000003333333333330000000000000000
#04019:0013000000000000
#04016:14
#04018:0000000000000000000000000000000000330000000000000000000000000000
#0631b:13000000130000000000001300000000
#06315:1300000000000013
#06318:0000001313000000
#06312:00000013000000001300000013000000
#06317:0013000000000000
#06316:0000000000130000
#06412:0000001313000000
#0641b:0000001300000000
#0641a:0000000000000000130000000000000000003333333333330000000000000000
#06419:0013000000000000
#06413:00130000
#06414:0013000000000000
#06416:14
#06418:0000000000000000000000000000000000330000000000000000000000000000
#0541b:0000001300000013
#05416:0000001300000000
#05414:0013
#05412:0000000000130000
#05417:0000000000130000
#05419:00000013
#05415:0000000000000013
#00752:13
#0075b:13
#0125b:00230000
#01257:00000000000000530000000000000000
#01256:00230000
#01252:00000000000000530000000000000000
#0425a:0000002400000024000000240000002453006300630063005300630063006300
#04253:54545454545454545300000000000000
#04254:0024000000240000002400000024000000000000000000000000000000000000
#04252:0000002400000024000000240000002400000000000000000000000000000000
#04259:6400640064006400640064006400640000230000002300000023000000230000
#04258:0024000000240000002400000024000000000000000000000000000000000000
#0425b:0000000000000000000000000000000000000023000000230000002300000023
#04256:00000063
#01157:0000000000000053
#0115b:0053
#01156:0053
#01152:0000000000000063
#0455a:53
#04553:63535353635353536353535363535353
#04554:0023000000230000002300000023000000230000002300000023000000230000
#04552:0000002300000023000000230000002300000023000000230000002300000023
#04557:00000063
#04453:63535353635353535300000000000000
#04454:0023000000230000002300000023000000000000000000000000000000000000
#04452:0000002300000023000000230000002300000000000000000000000000000000
#0445a:00000000000000005363636353636363
#04459:0000000000000000000000000000000000230000002300000023000000230000
#0445b:0000000000000000000000000000000000000023000000230000002300000023
#04456:00000063
#0475a:54540000
#04756:00000000000000000000000000000000000000000000000000000000000000000000000000000000000000000000000000000000000000000000000000000000000000000000000000000000000000005454000000000000000000000000000000000000000000000000000000000000000000000000000000000000000000000000000000000000000000000000000000000000000000000000000000000000000000000000000000000000000000000000000000000000000000000000000000000000000000000000000000000000000000000000000000000000000000000000000000000000000000000000000000000000000000000000000000000000000000000000000000000000000000000000000000000000000000000000000000000000000000000000000000000000000000000000000000000000000000000000000000000000000000000000000000000000000000000000000000000000000000000000000000000000000000000000000000000000000000000000000000000000000000000000000000000000000000000000000000000000000000000000000000000000000000000000000000000000000000000000000000000000000000000000000000000000000000000000000000000000000000000000000000000000000000000000000000000000000000000000000000000000000000000000000000000000000000000000000000000000000000000000000000000000000000000000000000000000000000000000000000000000000000000000000000000000000000000000000000000000000000000000000000000000000000000000000000000000000000000000000000000000000000000000000000000000
#04752:54540000
#04653:63535353635353535300000000000000
#04654:0023000000230000002300000023000000000000000000000000000000000000
#04652:0000002300000023000000230000002300000000000000000000000000000000
#0465a:00000000000000005363636353636363
#0465b:0000000000000000000000000000000000230000002300000023000000230000
#04659:0000000000000000000000000000000000000023000000230000002300000023
#04656:00000063
#0325a:00006444
#03257:0000000000240000
#03255:000000000000000000000000000000000000000000000000000000000000000000000000000000000000000000000000000000000000000000000000000000000000000000000000000000000000000000000000000000000000000000000000000000000000000000000000000000000000000000000000000000000000000000000000000000000000000000000000000000000000000000000000000000000000000000000000000000000000000000000000000000000000000000000000000000000000000000000000000000000000000000000000000000000000000000000000000000000000000000000000000000000000000000000000000000000000000000000000000000000000000000000000000000000000000000000000000000000000000000000000000000000000000000000000000000000000000000000000000000000000000000000000000000000000000000000000000000000000000000000000000000000000000000000000000000000000000000000000000000000000000000000000000000000000000000000000000000000000000000000000000000000000000000000000000000000000000000000000000000000000000000000000000000000000000000000000000000000000000000000000000000000000000000000000000000000000000000000000000000000000000000000000000000000000000000000000000000000000000000000000000000000000000000000000000000000000000000000000000000000000000000000000000000000000000000000000000000000000000000000000000000000000000000000000000000000000000000000000000000000000000000000000000000000000000000000000000000000000000000000000000000000000000000000000000000000000000000000000000000000000000000000000000000000000000000000000000000000000000000000000000000000000000000000000000000000000000000000000000000000000000000000000000000000000000000000000000000000000000000000000000000000000000000000000000000000000000000000000000000000000000000000000000000000000000000000000000000000000000000000000000000000000000000000000000000000000000000000000000000000000000000000000000000000000000000000000000000000000000000000000000000000000000000000000000000000000000000000000000000000000000000000000000000000000000000000000000000000000000000000000000000000000000000000000000000000000000000000000000000000000000000000000000000000000000000000000000000000000000000000000000000000000000000000000000000000000000000000000000000000000000000000000000000000000000000000000000000000000000000000000000000000000000000000000000000000000000000000000000000000000000000000000000000000000000000000000000000000000000000000000000000000000000000000000000000000000000000000000000000000000000000000000000000000000000000000000000000000000000000000000002400000000000000000000000000000000000000000000000000000000000000000000000000000000000000000000000000000000000000000000000000000000000000000000000000000000000000000000000000000000000000000000000000000000000000000000000000000000000000000000000000000000000000000000000000000000000000000000000000000000000000000000000000000000000000000000000000000000000000000000000000000000000000000000000000000000000000000000000000000000000000000000000000000000000000000000000000000000000000000000000000000000000000000000000000000000000000000000000000000000000000000000000000000000000000000000000000000000000000000000000000000000000000000000000000000000000000000000000000000000000000000000000000000000000000000000000000000000000000000000000000000000000000000000000000000000000000000000000000000000000000000000000000000000000000000000000000000000000000000000000000000000000000000000000000000000000000000000000000000000000000000000000000000000000000000000000000000000000000000000000000000000000000000000000000000000000000000000000000000000000000000000000000000000000000000000000000000000000000000000000000000000000000000000000000000000000000000000000000000000000000000000000000000000000000000000000000000000000000000000000000000000000000000000000000000000000000000000000000000000000000000000000000000000000000000000000000000000000000000000000000000000000000000000000000000000000000000000000000000000000000000000000000000000000000000000000000000000000000000000
#03252:00005434
#01452:0053
#0145b:0053
#01455:0000000000230000
#01458:0000000000230000
#02357:00530053
#02356:5353
#02452:0000234c
#0245b:53
#04153:64545454545454545454545454545454
#04154:0024000000240000002400000024000000240000002400000024000000240000
#04152:0000002400000024000000240000002400000024000000240000002400000024
#04159:64646464646464646464646464646464
#04158:0024000000240000002400000024000000240000002400000024000000240000
#0415a:0000002400000024000000240000002400000024000000240000002400000024
#04353:63535353635353536353535363535353
#04354:0023000000230000002300000023000000230000002300000023000000230000
#04352:0000002300000023000000230000002300000023000000230000002300000023
#0435a:53
#04357:00000063
#0655a:63636363536363635363636353636363
#0655b:0000002300000023000000230000002300000023000000230000002300000023
#06559:0023000000230000002300000023000000230000002300000023000000230000
#0665a:53636363536363630000000000000000
#0665b:0000002300000023000000230000002300000000000000000000000000000000
#06659:0023000000230000002300000023000000000000000000000000000000000000
#06656:00000000000000005363636353636363
#06655:0000000000000000000000000000000000230000002300000023000000230000
#06657:0000000000000000000000000000000000000023000000230000002300000023
#0695a:63636363536363635363636353636363
#0695b:0000002300000023000000230000002300000023000000230000002300000023
#06959:0023000000230000002300000023000000230000002300000023000000230000
#0705a:53630000000000006363636353635363
#0705b:0000002300000000000000000000000000000023000000230000002300000023
#07053:00005353535363530000000000000000
#07052:0000000000000023000000230000002300000000000000000000000000000000
#07059:0023000000000000000000000000000000230000002300000023000000230000
#07054:0000000000230000002300000023000000000000000000000000000000000000
#07153:53535353635353536353535363535353
#07152:0000002300000023000000230000002300000023000000230000002300000023
#07154:0023000000230000002300000023000000230000002300000023000000230000
#07253:63535353635353530000000000000000
#07252:0000002300000023000000230000002300000000000000000000000000000000
#0725a:00000000000000006363636353635363
#0725b:0000000000000000000000000000000000000023000000230000002300000023
#07254:0023000000230000002300000023000000000000000000000000000000000000
#07259:0000000000000000000000000000000000230000002300000023000000230000
#07359:5400006400000063
#07353:0000006400000000
#07354:0000000000000063
#0255b:0000000000530053
#02558:00000023
#02052:00230000
#02056:00000000000000630000000000000000
#02057:00230000
#0205b:00000000000000630000000000000000
#01952:0063
#01957:0063
#0195b:0000000000000053
#01956:0000000000000053
#02257:53
#02256:0063
#03852:0034000000000000
#0385a:0044000000000000
#0375a:0000005400002400
#03752:0000005400002400
#0485a:0054
#04858:0000000000224600
#04852:00006436
#04856:0000000000220000
#04956:0000000000630000
#04952:0000000000000023
#04958:0000000000000023
#0495b:0000000000630000
#06853:63636363636363636363636313000000
#06854:0023000000230000002300000023000000230000002300000000000000000000
#06852:0000002300000023000000230000002300000023000000230000000000000000
#0685b:00000013
#06754:0000000000230000002300000023000000230000002300000023000000230000
#06753:00006363636363636363636363636363
#06752:0000002300000023000000230000002300000023000000230000002300000023
#06756:53
#07459:0000006200000000
#07455:0000006200000000
#01059:000000630053006300630063
#0105b:002323
#01057:000000230023
#01054:000000630053006300630063
#01056:002323
#01052:000000230023
#05056:0043000000000000
#0505b:0043000000000000
#0625a:0044000000000000
#06252:0034000000000000
#06256:00000000000000000000000000000000000000006464000000000000000000000000000000000000000000000000000000000000000000000000000000000000000000000000000000000000000000000000000000000000000000000000000000000000000000000000000000000000000000000000000000000000000000000000000000000000000000000000000000000000000000000000000000000000000000000000000000000000000000000000000000000000000000000000000000000000000000000000000000000000000000000000000000000000000000000000000000000000000000000000000000000000000000000000000000000000000000000000000000000000000000000000000000000000000000000000000000000000000000000000000000000000000000000000000000000000000000000000000000000000000000000000000000000000000000000000000000000000000000000000000000000000000000000000000000000000000000000000000000000000000000000000000000000000000000000000000000000000000000000000000000000000000000000000000000000000000000000000000000000000000000000000000000000000000000000000000000000000000000000000000000000000000000000000000000000000000000000000000000000000000000000000000000000000000000000000000000000000000000000000000000000000000000000000000000000000000000000000000000000000000000000000000000000000000000000000000000000000000000000000000000000000000000000000000000000000000000000000000000000000000000000000000000000000
#06152:00000000000024000024000024000024
#0615a:00000000000024000024000024000024
#06156:00000000000000000000000000000000000000000000000000000000000000000000000000000000000000000000000000000000000000000000000000000000000000000000000000000000000000000000000000000000000000000000000000000000000000000000000000000000000000000000000000000000000000000000000000000000000000000000000000000000000000000000000000000000000000000000000000000000000000000000000000000000000000000000000000000000000000000000000000000000000000000000000000000000000000000000000000000000000000000000000000000000000000000000000000000000000000000000000000000000000000000000000000000000000000000000000000000000000000000000000064640000000000000000000000000000000000000000000000000000000000000000000000000000000000000000000000000000000000000000000000000000000000000000000000000000000000000000000000000000000000000000000000000000000000000000000000000000000000000000000064640000000000000000000000000000000000000000000000000000000000000000000000000000000000000000000000000000000000000000000000000000000000000000000000000000000000000000000000000000000000000000000000000000000000000000000000000000000000000000000064640000000000000000000000000000000000000000000000000000000000000000000000000000000000000000000000000000000000000000000000000000000000000000000000000000000000000000000000000000000000000000000000000000
#02658:23
#0265b:0043000000000000
#02656:0033000000000000
#01854:000000530063005300530053
#01852:002323
#01856:000000230023
#01859:000000530063005300530053
#01857:002323
#0185b:000000230023
#0085b:00230000
#00858:53
#00855:0063
#00852:00000023
#00958:53
#0095b:00230000
#01552:33
#0155b:43
#01652:53
#01655:00230000
#0165b:0063
#01658:00000023
#01752:53
#01755:00230000
#02152:53
#02155:00000000002300000000000000000000
#0215b:63
#02158:00000000002300000000000000000000
#02752:0000000000630063
#02755:00000023
#02855:23
#02857:0043000000000000
#02852:0033000000000000
#03156:63
#03157:0063
#03555:0000000000530053
#03552:00000023
#03652:23
#03655:0043000000000000
#0365b:0043000000000000
#03358:0000000000630063
#0335b:00000023
#0345b:23
#03452:0033000000000000
#03458:0033000000000000
#0515b:0000000000000023
#05152:0000000000530000
#05155:0000000000000023
#05157:0000000000530000
#05252:0033000000000000
#05257:0033000000000000
#0555b:63
#05552:0053
#05655:0000000000240000
#05652:00005434
#05657:000000000000000000000000000000000000000000000000000000000000000000000000000000000000000000000000000000000000000000000000000000000000000000000000000000000000000000000000000000000000000000000000000000000000000000000000000000000000000000000000000000000000000000000000000000000000000000000000000000000000000000000000000000000000000000000000000000000000000000000000000000000000000000000000000000000000000000000000000000000000000000000000000000000000000000000000000000000000000000000000000000000000000000000000000000000000000000000000000000000000000000000000000000000000000000000000000000000000000000000000000000000000000000000000000000000000000000000000000000000000000000000000000000000000000000000000000000000000000000000000000000000000000000000000000000000000000000000000000000000000000000000000000000000000000000000000000000000000000000000000000000000000000000000000000000000000000000000000000000000000000000000000000000000000000000000000000000000000000000000000000000000000000000000000000000000000000000000000000000000000000000000000000000000000000000000000000000000000000000000000000000000000000000000000000000000000000000000000000000000000000000000000000000000000000000000000000000000000000000000000000000000000000000000000000000000000000000000000000000000000000000000000000000000000000000000000000000000000000000000000000000000000000000000000000000000000000000000000000000000000000000000000000000000000000000000000000000000000000000000000000000000000000000000000000000000000000000000000000000000000000000000000000000000000000000000000000000000000000000000000000000000000000000000000000000000000000000000000000000000000000000000000000000000000000000000000000000000000000000000000000000000000000000000000000000000000000000000000000000000000000000000000000000000000000000000000000000000000000000000000000000000000000000000000000000000000000000000000000000000000000000000000000000000000000000000000000000000000000000000000000000000000000000000000000000000000000000000000000000000000000000000000000000000000000000000000000000000000000000000000000000000000000000000000000000000000000000000000000000000000000000000000000000000000000000000000000000000000000000000000000000000000000000000000000000000000000000000000000000000000000000000000000000000000000000000000000000000000000000000000000000000000000000000000000000000000000000000000000000000000000000000000000000000000000000000000000000000000000000000000002400000000000000000000000000000000000000000000000000000000000000000000000000000000000000000000000000000000000000000000000000000000000000000000000000000000000000000000000000000000000000000000000000000000000000000000000000000000000000000000000000000000000000000000000000000000000000000000000000000000000000000000000000000000000000000000000000000000000000000000000000000000000000000000000000000000000000000000000000000000000000000000000000000000000000000000000000000000000000000000000000000000000000000000000000000000000000000000000000000000000000000000000000000000000000000000000000000000000000000000000000000000000000000000000000000000000000000000000000000000000000000000000000000000000000000000000000000000000000000000000000000000000000000000000000000000000000000000000000000000000000000000000000000000000000000000000000000000000000000000000000000000000000000000000000000000000000000000000000000000000000000000000000000000000000000000000000000000000000000000000000000000000000000000000000000000000000000000000000000000000000000000000000000000000000000000000000000000000000000000000000000000000000000000000000000000000000000000000000000000000000000000000000000000000000000000000000000000000000000000000000000000000000000000000000000000000000000000000000000000000000000000000000000000000000000000000000000000000000000000000000000000000000000000000000000000000000000000000000000000000000000000000000000000000000000000000000000000000000000000
#0565a:00006444
#05757:0000000000000023
#05755:0000000000630000
#05752:0000000000000023
#0575b:0000000000630000
#0585b:0043000000000000
#05855:0033000000000000
#05956:0000000000000023
#05958:0000000000530000
#0595b:0000000000000023
#05952:0000000000530000
#06052:0033000000000000
#06058:0043000000000000
#0405b:00000043
#03952:00000000000000000000002300000000
#03955:0063
#0395b:00000023000000000000000000000000
#03958:53
#0635b:00000000000000000000002300000000
#06358:0053
#06352:00000023000000000000000000000000
#06355:63
#0645b:00000043
#008380:1323
#0083b0:00530000
#0083a0:0000003300000000
#008351:0013
#008321:00000053
#008331:0000000000000033
#009351:23
#009380:1323
#0093b0:00530000
#0093a0:0000003300000000
#010390:000000130053005300530053
#0103b0:005353
#010370:000000530053
#0113b0:23
#010341:000000130053005300530053
#010361:005353
#010321:000000530053
#011361:23
#0113b1:0013
#011371:0000000000532300
#011360:0013
#011320:0000000000532300
#011320:0000000000000013
#012360:5323000000000000
#011371:0000000000000013
#0123b1:5323000000000000
#0123b1:0000130000230000
#012371:00000000000000530000000000000000
#012360:0000130000230000
#012320:00000000000000530000000000000000
#014320:00001323
#014350:0000000000530000
#0143b1:00001323
#014381:0000000000530000
#016321:1323
#016351:00530000
#016341:0000003300000000
#0163b0:0013
#016380:00000053
#016390:0000000000000033
#0173b0:23
#017321:1323
#017351:00530000
#017341:0000003300000000
#018341:000000130053005300530053
#018321:005353
#018361:000000530053
#019321:23
#018390:000000130053005300530053
#018370:005353
#0183b0:000000530053
#019370:23
#019320:0013
#019360:0000000000532300
#019371:0013
#0193b1:0000000000532300
#0193b1:0000000000000013
#020371:5323000000000000
#019360:0000000000000013
#020320:5323000000000000
#020320:0000130000230000
#020360:00000000000000530000000000000000
#020371:0000130000230000
#0203b1:00000000000000530000000000000000
#021321:1300000000230000
#021351:00000000335300000000000000000000
#021341:0000003300000000
#0213b0:1300000000230000
#021380:00000000335300000000000000000000
#021390:0000003300000000
#022370:13
#022320:00230000
#0223b1:13230000
#022321:00001323
#022360:0013
#0223b0:00000023
#023360:13
#023320:00230000
#023371:00130000
#0233b1:0023
#023360:0013
#023320:00000023
#023371:00000013
#0243b1:33
#0243a1:003300000000000000000000000000000000000000000000
#024381:003300000000000000000000
#024371:0033000000000000
#024361:003300000000
#024351:000000000033000000000000000000000000000000000000
#024341:00330000
#024331:000000000000003300000000000000000000000000000000
#024321:0000000000000000333300005300000000002c0000000000
#0253b1:0000000000130033
#025381:00000033
#026381:33
#0263b1:0023000000000000
#026351:0000001300330033
#026321:00003333
#027321:23
#027321:0000000000130033
#027351:00000033
#028351:33
#028321:0023000000000000
#0293c1:0000001200000032
#029381:0000000000320000
#030381:0022000000000000
#029360:0000001200000032
#029320:0000000000320000
#030320:0022000000000000
#031360:13
#031320:00230000
#031370:0013
#0313b0:00000023
#0323a0:00001424
#032380:000000000000000000000000003400000034000000000000
#032370:000000000000000000000000000034343400000000000000
#032321:00001424
#032341:000000000000000000000000003400000034000000000000
#032351:000000000000000000000000000000000000000000000000000000000000000000000000000000000000000000000000000000000000000000000000000000000000000000000000000000000000000000000000000000000000000000000000000000000000000000000000000000000000000000000000000000000000000000000000000000000000000000000000000000000000000000000000000000000000000000000000000000000000000000000000000000000000000000000000000000000000000000000000000000000000000000000000000000000000000000000000000000000000000000000000000000000000000000000000000000000000000000000000000000000000000000000000000000000000000000000000000000000000000000000000000000000000000000000000000000000000000000000000000000000000000000000000000000000000000000000000000000000000000000000000000000000000000000000000000000000000000000000000000000000000000000000000000000000000000000000000000000000000000000000000000000000000000000000000000000000000000000000000000000000000000000000000000000000000000000000000000000000000000000000000000000000000000000000000000000000000000000000000000000000000000000000000000000000000000000000000000000000000000000000000000000000000000000000000000000000000000000000000000000000000000000000000000000000000000000000000000000000000000000000000000000000000000000000000000000000000000000000000000000000000000000000000000000000000000000000000000000000000000000000000000000000000000000000000000000000000000000000000000000000000000000000000000000000000000000000000000000000000000000000000000000000000000000000000000000000000000000000000000000000000000000000000000000000000000000000000000000000000000000000000000000000000000000000000000000000000000000000000000000000000000000000000000000000000000000000000000000000000000000000000000000000000000000000000000000000000000000000000000000000000000000000000000000000000000000000000000000000000000000000000000000000000000000000000000000000000000000000000000000000000000000000000000000000000000000000000000000000000000000000000000000000000000000000000000000000000000000000000000000000000000000000000000000000000000000000000000000000000000000000000000000000000000000000000000000000000000000000000000000000000000000000000000000000000000000000000000000000000000000000000000000000000000000000000000000000000000000000000000000000000000000000000000000003400000000000000000000000000000000000000000000000000000000000000000000000000000000000000000000000000000000000000000000000000000000000000000000000000000000000000003400000000000000000000000000000000000000000000000000000000000000000000000000000000000000000000000000000000000000000000000000000000000000000000000000000000000034000000000000000000000000000000000000000000000000000000000000000000000000000000000000000000000000000000000000000000000000000000000000000000000000000000000000000000000000000000000000000000000000000000000000000000000000000000000000000000000000000000000000000000000000000000000000000000000000000000000000000000000000000000000000000000000000000000000000000000000000000000000000000000000000000000000000000000000000000000000000000000000000000000000000000000000000000000000000000000000000000000000000000000000000000000000000000000000000000000000000000000000000000000000000000000000000000000000000000000000000000000000000000000000000000000000000000000000000000000000000000000000000000000000000000000000000000000000000000000000000000000000000000000000000000000000000000000000000000000000000000000000000000000000000000000000000000000000000000000000000000000000000000000000000000000000000000000000000000000000000000000000000000000000000000000000000000000000000000000000000000000000000000000000000000000000000000000000000000000000000000000000000000000000000000000000000000000000000000000000000000000000000000000000000000000000000000000000000000000000000000000000000000000000000000000000000000000000000000000000000000000000000000000000000000000000000000000000000000000000000000000000000000000
#033381:0000000000130033
#0333b1:00000033
#0343b1:33
#034381:0023000000000000
#034381:0000001300330033
#0343b1:00003333
#0353b1:23
#035351:0000000000130033
#035321:00000033
#036321:33
#036351:0023000000000000
#0363b1:0000001300000000
#036381:0023
#036350:0013
#036320:0000000000230000
#036381:0000000000130000
#0363b1:00000023
#036320:00000013
#036350:0000000000000023
#0363b1:0000000000000013
#037381:23
#037350:13
#037320:0023000000000000
#037381:0013000000000000
#0373b1:00230000
#0373a1:0000001400000000
#037321:00000054
#0383a1:0024000000000000
#037320:0000001400000000
#0373a0:00000054
#038320:0024000000000000
#039380:1300002300000000
#0393b0:00000053000000000000000000000000
#039350:0000000013000023
#039320:00000000000000000000005300000000
#040360:0013
#040380:0000000000000000000000000000000000330000000000000000000000000000
#0403a0:0000000000000000000000000000000000003333333333330000000000000000
#0403b0:00000023
#041390:14545454545454545454545454545454
#041380:0054000000540000005400000054000000540000005400000054000000540000
#0413a0:0000005400000054000000540000005400000054000000540000005400000054
#042390:5400540054005400540054005400540000530000005300000053000000530000
#042380:0054000000540000005400000054000000000000000000000000000000000000
#0423a0:0000005400000054000000540000005433005300530053005300530053005300
#0423b0:0000000000000000000000000000000000000053000000530000005300000053
#0433a0:33
#043370:00000053
#0443a0:00000000000000003353535353535353
#044390:0000000000000000000000000000000000530000005300000053000000530000
#0443b0:0000000000000000000000000000000000000053000000530000005300000053
#0453a0:33
#045370:00000053
#0463a0:00000000000000003353535353535353
#0463b0:0000000000000000000000000000000000530000005300000053000000530000
#046390:0000000000000000000000000000000000000053000000530000005300000053
#0473a0:34340000
#047360:00000000000000000000000000000000000000000000000000000000000000000000000000000000000000000000000000000000000000000000000000000000000000000000000000000000000000000054000000000000000000000000000000000000000000000000000000000000000000000000000000000000000000000000000000000000000000000000000000000000000000000000000000000000000000000000000000000000000000000000000000000000000000000000000000000000000000000000000000000000000000000000000000000000000000000000000000000000000000000000000000000000000000000000000000000000000000000000000000000000000000000000000000000000000000000000000000000000000000000000000000000000000000000000000000000000000000000000000000000000000000000000000000000000000000000000000000000000000000000000000000000000000000000000000000000000000000000000000000000000000000000000000000000000000000000000000000000000000000000000000000000000000000000000000000000000000000000000000000000000000000000000000000000000000000000000000000000000000000000000000000000000000000000000000000000000000000000000000000000000000000000000000000000000000000000000000000000000000000000000000000000000000000000000000000000000000000000000000000000000000000000000000000000000000000000000000000000000000000000000000000000000000000000000000000000000000000000000000000000000000000000000000000000000
#047380:00000052
#048380:22
#041331:14545454545454545454545454545454
#041341:0054000000540000005400000054000000540000005400000054000000540000
#041321:0000005400000054000000540000005400000054000000540000005400000054
#042331:54545454545454543300000000000000
#042341:0054000000540000005400000054000000000000000000000000000000000000
#042321:0000005400000054000000540000005400000000000000000000000000000000
#042361:00000053
#043331:33535353535353535353535353535353
#043341:0053000000530000005300000053000000530000005300000053000000530000
#043321:0000005300000053000000530000005300000053000000530000005300000053
#044331:53535353535353533300000000000000
#044341:0053000000530000005300000053000000000000000000000000000000000000
#044321:0000005300000053000000530000005300000000000000000000000000000000
#044361:00000053
#045331:33535353535353535353535353535353
#045341:0053000000530000005300000053000000530000005300000053000000530000
#045321:0000005300000053000000530000005300000053000000530000005300000053
#046331:53535353535353533300000000000000
#046341:0053000000530000005300000053000000000000000000000000000000000000
#046321:0000005300000053000000530000005300000000000000000000000000000000
#046361:00000053
#047321:34340000
#047361:0034000000005200
#048361:22
#0483a1:0014
#048391:000000000000000000000000003300000000000000000000
#048381:000000000000000000000000000033323232260000000000
#048320:00001426
#048340:000000000000000000000000003300000000000000000000
#048350:000000000000003300000000
#048360:000000000000000000000000000000323232000000000000
#049360:0000000000130000
#049320:0000000000000033
#050360:0023000000000000
#0493b1:0000000000130000
#049381:00000023
#049381:0000000000000013
#0503b1:23
#0503b0:0000001300230000
#050370:0033
#050370:00000013
#0503b0:0000000000000033
#051370:23
#051370:0000000000130000
#0513b0:0000000000000033
#052370:0023000000000000
#051321:0000000000130000
#051351:00000023
#051351:0000000000000013
#052321:23
#053320:0000001200000032
#053360:0000000000320000
#054360:0022000000000000
#053381:0000001200000032
#0533c1:0000000000320000
#0543c1:0022000000000000
#0553b1:13
#055371:00230000
#055321:0013
#055361:00000023
#056321:00001424
#056341:000000000000000000000000003400000034000000000000
#056351:000000000000000000000000000034343400000000000000
#0563a0:00001424
#056380:000000000000000000000000003400000034000000000000
#056370:000000000000000000000000000000000000000000000000000000000000000000000000000000000000000000000000000000000000000000000000000000000000000000000000000000000000000000000000000000000000000000000000000000000000000000000000000000000000000000000000000000000000000000000000000000000000000000000000000000000000000000000000000000000000000000000000000000000000000000000000000000000000000000000000000000000000000000000000000000000000000000000000000000000000000000000000000000000000000000000000000000000000000000000000000000000000000000000000000000000000000000000000000000000000000000000000000000000000000000000000000000000000000000000000000000000000000000000000000000000000000000000000000000000000000000000000000000000000000000000000000000000000000000000000000000000000000000000000000000000000000000000000000000000000000000000000000000000000000000000000000000000000000000000000000000000000000000000000000000000000000000000000000000000000000000000000000000000000000000000000000000000000000000000000000000000000000000000000000000000000000000000000000000000000000000000000000000000000000000000000000000000000000000000000000000000000000000000000000000000000000000000000000000000000000000000000000000000000000000000000000000000000000000000000000000000000000000000000000000000000000000000000000000000000000000000000000000000000000000000000000000000000000000000000000000000000000000000000000000000000000000000000000000000000000000000000000000000000000000000000000000000000000000000000000000000000000000000000000000000000000000000000000000000000000000000000000000000000000000000000000000000000000000000000000000000000000000000000000000000000000000000000000000000000000000000000000000000000000000000000000000000000000000000000000000000000000000000000000000000000000000000000000000000000000000000000000000000000000000000000000000000000000000000000000000000000000000000000000000000000000000000000000000000000000000000000000000000000000000000000000000000000000000000000000000000000000000000000000000000000000000000000000000000000000000000000000000000000000000000000000000000000000000000000000000000000000000000000000000000000000000000000000000000000000000000000000000000000000000000000000000000000000000000000000000000000000000000000000000000000000000000000000000003400000000000000000000000000000000000000000000000000000000000000000000000000000000000000000000000000000000000000000000000000000000000000000000000000000000000000003400000000000000000000000000000000000000000000000000000000000000000000000000000000000000000000000000000000000000000000000000000000000000000000000000000000000034000000000000000000000000000000000000000000000000000000000000000000000000000000000000000000000000000000000000000000000000000000000000000000000000000000000000000000000000000000000000000000000000000000000000000000000000000000000000000000000000000000000000000000000000000000000000000000000000000000000000000000000000000000000000000000000000000000000000000000000000000000000000000000000000000000000000000000000000000000000000000000000000000000000000000000000000000000000000000000000000000000000000000000000000000000000000000000000000000000000000000000000000000000000000000000000000000000000000000000000000000000000000000000000000000000000000000000000000000000000000000000000000000000000000000000000000000000000000000000000000000000000000000000000000000000000000000000000000000000000000000000000000000000000000000000000000000000000000000000000000000000000000000000000000000000000000000000000000000000000000000000000000000000000000000000000000000000000000000000000000000000000000000000000000000000000000000000000000000000000000000000000000000000000000000000000000000000000000000000000000000000000000000000000000000000000000000000000000000000000000000000000000000000000000000000000000000000000000000000000000000000000000000000000000000000000000000000000000000000000000000000000000000000
#0573b0:0000000000130000
#057370:0000000000000033
#0583b0:0023000000000000
#057351:0000000000130000
#057321:00000023
#057321:0000000000000013
#058351:23
#0583b0:0000001300230000
#058370:0033
#058370:00000013
#0583b0:0000000000000033
#059370:23
#059320:0000000000130000
#059360:0000000000000033
#060320:0023000000000000
#059381:0000000000130000
#0593b1:00000023
#0593b1:0000000000000013
#060381:23
#060320:0000001300000000
#060350:0023
#060381:0013
#0603b1:0000000000230000
#060360:0000000000130000
#060320:00000023
#0603b1:00000013
#060371:0000000000000023
#060320:0000000000000013
#061350:23
#061381:13
#0613b1:0023000000000000
#061360:0013000000000000
#061320:00230000
#0613a0:0000001400000000
#061360:00000000000000000000000000000000000000000000000000000000000000000000000000000000000000000000000000000000000000000000000000000000000000000000000000000000000000000000000000000000000000000000000000000000000000000000000000000000000000000000000000000000000000000000000000000000000000000000000000000000000000000000000000000000000000000000000000000000000000000000000000000000000000000000000000000000000000000000000000000000000000000000000000000000000000000000000000000000000000000000000000000000000000000000000000000000000000000000000000000000000000000000000000000000000000000000000000000000000000000000000000540000000000000000000000000000000000000000000000000000000000000000000000000000000000000000000000000000000000000000000000000000000000000000000000000000000000000000000000000000000000000000000000000000000000000000000000000000000000000000000054000000000000000000000000000000000000000000000000000000000000000000000000000000000000000000000000000000000000000000000000000000000000000000000000000000000000000000000000000000000000000000000000000000000000000000000000000000000000000000000000540000000000000000000000000000000000000000000000000000000000000000000000000000000000000000000000000000000000000000000000000000000000000000000000000000000000000000000000000000000000000000000000000000
#061320:00000000000000000054000054000054
#062360:0054000000000000000000000000000000000000000000000000000000000000
#0623a0:0024000000000000
#061321:0000001400000000
#061361:00000000000000000000000000000000000000000000000000000000000000000000000000000000000000000000000000000000000000000000000000000000000000000000000000000000000000000000000000000000000000000000000000000000000000000000000000000000000000000000000000000000000000000000000000000000000000000000000000000000000000000000000000000000000000000000000000000000000000000000000000000000000000000000000000000000000000000000000000000000000000000000000000000000000000000000000000000000000000000000000000000000000000000000000000000000000000000000000000000000000000000000000000000000000000000000000000000000000000000000000054000000000000000000000000000000000000000000000000000000000000000000000000000000000000000000000000000000000000000000000000000000000000000000000000000000000000000000000000000000000000000000000000000000000000000000000000000000000000000000000000540000000000000000000000000000000000000000000000000000000000000000000000000000000000000000000000000000000000000000000000000000000000000000000000000000000000000000000000000000000000000000000000000000000000000000000000000000000000000000000054000000000000000000000000000000000000000000000000000000000000000000000000000000000000000000000000000000000000000000000000000000000000000000000000000000000000000000000000000000000000000000000000000000
#0613a1:00000000000000000054000054000054
#062361:00000000000000000000000000000000000000000054000000000000000000000000000000000000000000000000000000000000000000000000000000000000000000000000000000000000000000000000000000000000000000000000000000000000000000000000000000000000000000000000000000000000000000000000000000000000000000000000000000000000000000000000000000000000000000000000000000000000000000000000000000000000000000000000000000000000000000000000000000000000000000000000000000000000000000000000000000000000000000000000000000000000000000000000000000000000000000000000000000000000000000000000000000000000000000000000000000000000000000000000000000000000000000000000000000000000000000000000000000000000000000000000000000000000000000000000000000000000000000000000000000000000000000000000000000000000000000000000000000000000000000000000000000000000000000000000000000000000000000000000000000000000000000000000000000000000000000000000000000000000000000000000000000000000000000000000000000000000000000000000000000000000000000000000000000000000000000000000000000000000000000000000000000000000000000000000000000000000000000000000000000000000000000000000000000000000000000000000000000000000000000000000000000000000000000000000000000000000000000000000000000000000000000000000000000000000000000000000000000000000000000000000000000000000
#062321:0024000000000000
#063351:1300002300000000
#063321:00000053000000000000000000000000
#063381:0000000013000023
#0633b1:00000000000000000000005300000000
#064361:0013
#064381:0000000000000000000000000000000000330000000000000000000000000000
#0643a1:0000000000000000000000000000000000003333333333330000000000000000
#0643b1:00000023
#0653a1:13535353535353535353535353535353
#065391:0053000000530000005300000053000000530000005300000053000000530000
#0653b1:0000005300000053000000530000005300000053000000530000005300000053
#0663a1:53535353535353532300000000000000
#066391:0053000000530000005300000053000000000000000000000000000000000000
#0663b1:0000005300000053000000530000005300000000000000000000000000000000
#066360:00000000000000001353535353535353
#066350:0000000000000000000000000000000000530000005300000053000000530000
#066370:0000000000000000000000000000000000000053000000530000005300000053
#067360:53
#067320:0000005300000053000000530000005300000053000000530000005300000053
#067330:00005353535353535353535353535353
#067340:0000000000530000005300000053000000530000005300000053000000530000
#068330:53535353535353535353535323000000
#068340:0053000000530000005300000053000000530000005300000000000000000000
#068320:0000005300000053000000530000005300000053000000530000000000000000
#0693a0:13535353535353535353535353535353
#069390:0053000000530000005300000053000000530000005300000053000000530000
#0693b0:0000005300000053000000530000005300000053000000530000005300000053
#0703a0:53532300000000000000000000000000
#070390:0053000000000000000000000000000000000000000000000000000000000000
#0703b0:0000005300000000000000000000000000000000000000000000000000000000
#069321:0013000000000000
#069341:00000033000000000000000000000000
#069361:00230000
#069361:0000000000130000
#069341:00000000000000000000003300000000
#069321:00000023
#070331:00001353535353532300000000000000
#070341:0000000000530000005300000053000000000000000000000000000000000000
#070321:0000000000000053000000530000005300000000000000000000000000000000
#0703a0:00000000000000001353535353535353
#070390:0000000000000000000000000000000000530000005300000053000000530000
#0703b0:0000000000000000000000000000000000000053000000530000005300000053
#0713a0:23
#071331:13535353535353535353535353535353
#071341:0053000000530000005300000053000000530000005300000053000000530000
#071321:0000005300000053000000530000005300000053000000530000005300000053
#072331:53535353535353532300000000000000
#072341:0053000000530000005300000053000000000000000000000000000000000000
#072321:0000005300000053000000530000005300000000000000000000000000000000
#071370:0013000000000000
#071390:00000033000000000000000000000000
#0713b0:00230000
#0713b0:0000000000130000
#0713a0:00000000000000000000003300000000
#071370:00000023
#072370:0013000000000000
#072380:00000033000000000000000000000000
#0723b0:00230000
#0723a0:00000000000000001353535353535353
#072390:0000000000000000000000000000000000530000005300000053000000530000
#0723b0:0000000000000000000000000000000000000053000000530000005300000053
#073390:3434343400333333
#074390:0032323200000000
#074380:0000000000323232
#075380:22
#073331:1434343400000000
#073341:0000000000333333
#074351:0032323200000000
#074361:0000000000323232
#075361:22
