This file was generated by Ched 2.6.2.0.
#TITLE ""
#ARTIST ""
#DESIGNER ""
#DIFFICULTY 0
#PLAYLEVEL
#SONGID ""
#WAVE ""
#WAVEOFFSET 0
#JACKET ""
#REQUEST "ticks_per_beat 480"
#00002: 4
#BPM01: 150
#00008: 01
#TIL00: ""
#HISPEED 00
#MEASUREHS 00
#0001a:14141400
#00112:14141400
#0021a:1414
#00214:00140000
#00312:1414
#00318:00140000
#0041a:1414
#00412:00140000
#00512:1414
#0051a:00140000
#00619:1414
#00613:00140014
#00912:14140000
#00918:0014
#01212:14140000
#01218:0014
#0131a:14140000
#01314:0014
#0161a:14
#01614:00140000
#01618:0014
#01712:14
#01718:00140000
#01714:0014
#01710:41
#0201a:1414
#02014:00140014
#02118:1414
#02112:00140014
#0251a:1414
#02514:00140014
#03814:0014
#03818:00000014
#04014:00140000
#04018:0014
#04012:00000014
#0401a:14
#06714:14
#02318:1414
#02314:00140000
#00814:0014
#0081a:14140000
#00810:41
#07212:0016
#0181a:14
#01912:14
#00719:14
#02712:1414
#02718:00140014
#02710:41
#0311a:14
#03114:00140000
#03118:0014
#03112:00000014
#03213:14141400
#03219:14141400
#03212:00000024
#0321a:00000024
#0331a:14
#03314:00140000
#03318:0014
#03312:00000014
#03512:14
#03518:00140000
#03514:0014
#0351a:00000014
#04912:14
#0491a:00140000
#04914:0014
#04918:00000014
#0491f:21
#0511a:14
#05112:00140000
#05118:0014
#05114:00000014
#05110:41
#0551a:14140000
#05514:00001414
#05712:1414
#0571a:00140000
#05718:00000014
#05812:14
#05814:00140000
#0591a:1414
#05912:00140000
#05914:00000014
#0601a:14
#06018:00140000
#06218:0014
#06214:00000014
#06418:00140000
#06414:0014
#0641a:00000014
#06412:14
#05613:14141400
#05619:14141400
#05612:00000024
#0561a:00000024
#0411f:11
#0411a:24
#0481a:00000024
#02412:00000024
#0241a:00000024
#06512:24
#04718:24
#04719:0034000000000000
#0471a:00340000
#04314:24
#04512:24
#0291a:00343400
#03012:00343400
#03418:00340000
#03614:00340000
#03714:00343434
#0371a:00343434
#05012:00340000
#0521a:00340000
#06118:00343434
#06112:00343434
#07012:0035
#03910:41
#06910:41
#0485a:00000014
#06754:64
#02452:00000014
#0245a:00000014
#06552:54
#07252:0056
#0185a:54
#01952:54
#00759:14
#05852:54
#05854:00240000
#0605a:64
#06058:00240000
#03252:00000014
#0325a:00000014
#05652:00000014
#0565a:00000014
#0103a0:1424
#011320:1424
#014320:14
#014340:0024
#0153a0:14
#015380:0024
#0183a0:14
#018380:0024
#019320:14
#019340:0024
#0223a0:14240000
#022320:00001424
#023320:00000014
#024320:0024
#0233a1:00000014
#0243a1:0024
#0263a1:14342400
#028321:14342400
#0293a1:14343400
#029381:00000024
#030321:14343400
#030341:00000024
#034381:14340000
#0343a1:0024
#036341:14340000
#036321:0024
#037341:14343434
#038321:24
#0373a0:14343434
#038380:24
#039320:14
#039340:00000024
#0413a0:14
#042380:0024
#043340:14
#044320:0024
#045320:14
#046340:0024
#047380:14
#047390:0034000000000000
#0473a0:00340000
#0483a0:0024
#050320:14340000
#050340:0024
#0523a0:14340000
#052380:0024
#053320:14343424
#053381:14343424
#0543a1:14343424
#054340:14343424
#058320:1424
#058340:00340000
#0603a0:1424
#060380:00340000
#061380:14343434
#0623a0:24
#061321:14343434
#062341:24
#0633a1:14
#063381:00000024
#065321:14
#066341:0034
#067341:34
#069321:34
#070321:3435
#071321:36
#072321:0036
#073331:3434343400343434
#074331:0034343400343434
#075331:24
