This file was generated by Ched 2.6.2.0.
#TITLE ""
#ARTIST ""
#DESIGNER ""
#DIFFICULTY 0
#PLAYLEVEL
#SONGID ""
#WAVE ""
#WAVEOFFSET 0
#JACKET ""
#REQUEST "ticks_per_beat 480"
#00002: 4
#BPM01: 150
#00008: 01
#TIL00: ""
#HISPEED 00
#MEASUREHS 00
#00019:00140000
#00113:00140000
#00313:00140000
#00419:00140000
#00713:00140000
#0101a:00140000
#01010:00410000
#01114:00140000
#01218:00140000
#01812:00150000
#01819:00150000
#01919:00140000
#02618:00140014
#02610:00000041
#02714:00140014
#03612:00000016
#03618:00260000
#0361f:00210000
#03818:00000016
#03812:00160000
#03810:00410000
#04212:00000016
#04218:00260000
#04813:00000014
#04819:00240000
#04913:00140000
#04919:00000014
#06316:00000014
#0281f:00110000
#05018:00140014
#05114:00140014
#05218:00140000
#05214:00000014
#02419:00140000
#02513:00140000
#03513:00000014
#04019:00140000
#04113:00140000
#05519:00000014
#05510:00410000
#05613:00000014
#05913:00000014
#06019:00000014
#00513:00140000
#00619:00140000
#01312:00140000
#0141a:00140000
#01514:00140000
#01618:00140000
#01712:00140000
#03718:00160000
#03912:00160000
#04318:00160000
#04413:00140000
#04513:00140000
#04619:00140000
#04719:00140000
#05314:00280000
#00219:00240000
#00210:00410000
#02010:00410000
#008390:00140000
#009390:00240000
#020390:00140000
#021390:00240000
#022330:00140000
#023330:00240000
#028380:00140000
#029380:00000024
#030340:00140000
#031340:00000024
#032380:00160000
#035380:00260000
#053340:00180038
#054340:00000028
#057390:00000014
#058390:00000024
#061330:00000014
#062330:00000024
