This file was generated by Ched 2.6.2.0.
#TITLE ""
#ARTIST ""
#DESIGNER ""
#DIFFICULTY 0
#PLAYLEVEL
#SONGID ""
#WAVE ""
#WAVEOFFSET 0
#JACKET ""
#REQUEST "ticks_per_beat 480"
#00002: 4
#BPM01: 150
#00008: 01
#TIL00: ""
#HISPEED 00
#MEASUREHS 00
#00014:00131300
#00013:00000014
#00019:00131314
#00012:23
#0001b:23
#00112:1500001300000000
#00118:0000001300001414
#00114:00000000000000000000000000140014
#00119:15
#0011b:00130000
#00115:00130000
#02017:00000000000000130000000000000000
#0201b:00000000230000000000130000000033
#02015:00130000
#02012:000000000000130000000000000000000000000000330000000013000000330000000000000000000000000000000000
#02018:0013000000001300
#02016:00000000000000000000000000000013
#02010:00410000
#03615:0000001300000000
#03613:0013
#0361a:00241300
#03618:0000000000130000
#0361b:00000013
#03616:00000013
#03612:00240000
#0361f:00210000
#0241b:0000000000000013
#02412:00130013
#02415:0013
#02413:33330000000000000000000000000000
#02515:13
#0251b:00130013
#02518:0013
#0381b:0013000000131300
#03816:00000013000000000000000013000000
#03819:00130000
#03812:1300001300000000
#03814:0000000013000013
#03817:00000000000000130000000000000000
#03810:00410000
#03718:1300001300000013
#03715:0013000000001200
#03719:00000000000000000000001200000000
#03712:00232300
#0371b:00232300
#03917:13000023
#03919:0013000000000000
#03912:13000023
#03916:00230000
#0391b:00230000
#02612:0013000000120000
#02618:0013001300120000
#02615:13131312
#0261b:13000012
#02613:0000000000000012
#02619:0000000000000012
#02610:00000041
#02716:12
#02719:0013001300130013
#02714:0013001300130013
#0271c:12
#0271b:00130013
#02712:0013
#04012:0013000000000000
#04014:0000001200001200
#04016:0012
#04018:0013000000000012
#0401a:0000000000120000
#0401c:00000000000000120000000000000000
#04112:1200001300000000
#04118:00000000000000130000000013000000
#04114:0013
#04116:0000000000130000
#0411a:00000000000000000013000000000000
#0411b:0013000000000000
#04115:0013000000000000
#04516:00120000
#04512:1300000000120000
#04514:00000000000000120000000000000000
#0451c:00120000
#0451a:00000000000000120000000000000000
#04518:0000000000120000
#0451b:00000000000000000000000000333333
#04712:000000000000130000000000000000000000003333333333
#04718:00000000000013000000001300000000
#04715:00000000000000130000130000000000
#0471b:13131300
#0501b:0000001300000013
#05012:0013000013000000
#05018:0013230000130000
#05015:00000013
#02212:0013130000001300
#02215:00000000000000001300000000000013
#02218:0000001300000013
#0221b:001300330000000000000000000000130000000000000000
#0231b:0013000000001300
#02312:0013000000120000
#0231c:00000000000000120000000000000000
#02316:00000000000000120000000000000000
#02318:0000000000120000
#02315:00000000120000000000000000330000
#02319:00120000
#02314:00000000000000000000000000003333
#00318:1313
#00315:00000000000000130000000000000000
#0031b:00000013
#00316:00000013
#00312:0000130000130000
#0031a:0000000000000033
#00319:0033000000000000
#00212:00230013
#00217:00000013
#0021b:0000230000130000
#00218:24000000000000130000000000000000
#00215:0013
#00214:0000000000000033
#00210:00410000
#00617:00000013
#0061b:0000230000130000
#00618:00001300000000130000000000000000
#00612:0013000013001300
#00619:0000000000000013
#00614:1300000000000033
#0061a:13
#00615:00230000
#01214:00000013000000001300000000130000
#01219:00000000130000000013000000001300
#01212:00000000001300000000001300000000
#0121b:0013000000000000
#01217:0000001300001300
#01216:00000000000000000000000000000013
#01012:00230013
#0101b:00000000230000000000000000130000
#01015:0000000013000013
#01018:0000001300130000
#01010:00410000
#01315:00001300000000130000130000000000
#01312:00130013
#01318:00000013000013000000001300000000
#0131b:1300000013000013
#01418:00000000130000130000000013000000
#01415:00000013000000001300001300000000
#0141b:0013000000130000
#01412:0000001300000013
#0161a:0000001200120012
#0161c:0012
#01618:0012000000001200
#01612:13130013
#01615:0013
#01718:0013000013000013
#01715:13000013000000000000130000000000
#0171b:00130013
#01712:0000001300001300
#0171c:12
#05518:00000000130000000000130000000013
#05512:0013000023000000
#0551b:1300003300001300
#05515:0000131300001300
#05510:00410000
#05415:00000000000000000000000000000013
#05419:00000024
#05413:00000024
#06212:00000013
#0621b:00000000001300000000000013000000
#06218:00000000000000000000001300000000
#06213:0000000000130000
#06219:00000000000000000013000000000000
#06214:0013
#0621a:00000000000000130000000000000000
#06215:0000001300000000
#06216:00130000
#05916:00130000
#05914:0000001300000000
#05912:0013000013000000
#05919:00000000000000130000000000000000
#05917:00000000000000000000000000000013
#0591b:00000000001300000000000023000000
#0591a:13
#05915:00000023
#06013:13
#0601b:0013000013000000
#06017:00130000
#06019:0000001300001300
#06014:00000000000000130000000013000000
#06012:00000000001300000000000000000000
#05215:0013000013000000
#05218:0000001300000013
#0521b:0013000000130000
#05212:00000013
#05319:0000001300001400
#05313:00000014
#05315:13
#05312:0013230000000000
#05314:0000000000130000
#05317:00130000
#05316:0013
#0531b:0023
#0151b:1300001300000013
#01515:00000000130000130000000013000000
#01518:00000013000000001300001300000000
#01512:0013000000130000
#01812:1300000000130000
#0181b:00130013
#01818:0013
#01815:00001300000000130000000000001300
#03212:1313
#03218:13000013
#03215:00130000
#0331b:13000000000000000000000000000013
#03312:0013
#03315:00130000
#03318:00000013
#03415:0013000000000000
#03418:0013000000000000
#06317:00000012
#0281f:00110000
#02817:00000000000013160000000000000000
#02815:00000013
#02818:0000000000000013
#02812:13
#0281b:13
#0281a:00230000
#02814:00230000
#00415:1313
#00412:00000013
#00417:00000013
#0041b:0000130000130000
#00418:00000000000000130000000000000000
#00414:0000000000000033
#00413:0033000000000000
#0421b:0013000000000000
#04218:0000001300000000
#0421a:00241300
#04213:0013
#04215:0000000000130000
#04212:00240013
#04217:00000013
#04418:0013
#0441b:00230013
#04415:00130013
#04412:0013
#05112:1300001300000000
#0511b:0013000000130000
#05115:0013230013001300
#05118:0000000000000013
#05816:00000000000000000000000000000013
#0581b:0013000000130000
#05812:13130023
#05818:00130023
#0581a:0000001300000000
#05814:0000001300000000
#05819:0013
#05813:0013
#05815:0000000000130000
#00518:1313
#00515:00000000000000130000000013000000
#00512:0000130000130000
#0051b:00000013
#00513:0000000000000013
#00519:0000000000000013
#0051a:0033000000000000
#0071b:13001313
#00716:00000013
#00712:0000130000130000
#00715:00000000000000130000000000000000
#00714:0000000000000013
#00719:0033000000000033
#00812:1300001300000000
#0081b:0000000000130000
#00815:0000000000000013
#00814:0033000000000000
#02912:1300001400000000
#0291a:0000001400000000
#02918:00240013
#02915:0000000000000013
#0291b:13
#02914:00240000
#0301b:13
#03012:13000013
#03018:0000000000000013
#03014:00230000
#0301a:00230000
#03115:1300000000000013
#0311b:13000013
#03116:00240000
#03514:00130000
#03519:00130000
#03512:00000000000000001300000014000026
#0351b:0013
#0351a:00000014
#03518:00000000000000000000000000000026
#04315:1300001300000013
#04318:0013000000000013
#04312:00232313
#0431b:00232313
#05718:00000000130000000000130000000013
#05712:0013000023000000
#0571b:1300003300001300
#05715:0000131300001300
#01112:1313
#01118:1313
#0111b:00130013
#01115:00130013
#00918:0013000000000000
#0091b:00000000000000000000000013333300
#00912:00000000000000000000000013333333
#00919:00000000000000000000000000000033
#01918:1300001300000013
#01915:0000000000130000
#04919:00131313
#04912:0000000000130000
#04916:0000000000000013
#0491b:0000001300000013
#04917:0000000000130000
#04914:00001313
#02112:000000000000130000000000000000000000000000330000000013000000330000000000000000000000000000000000
#02117:00000000000000130000000000000000
#0211b:000013000000330000000000000000000000000000000000000000000000130000000000000000000000000000330000
#02116:00000000000000000000000000000013
#02115:00130000
#02118:00000013
#04615:0013
#04612:00230013
#0461b:0013
#04618:00003333000000000000000013000000
#04619:33330000000000000000000000000000
#05615:00000000130000000000130000000013
#0561b:0013000023000000
#05612:1300003300001300
#05618:0000131300001300
#0611a:00000000140000140000000000000000
#06112:00000000140000140000000026000000
#06114:13
#06119:13
#06118:0000000000160000
#04812:333333000000000000000000000000000000000000000000
#04813:0033000000000000
#04814:003300000000
#04815:000000000033000000000000000000000000000000000000
#0245b:0000000000000043
#02555:33
#03952:00001363
#03957:00001363
#03956:00530000
#0395b:00530000
#02055:00630000
#02052:000000000000000000000000002300000000000000000000
#02058:00000053
#02655:00230000
#02652:0053000000000000
#00252:00000053
#00258:14
#00358:53
#0035b:00000063
#05558:00530000
#06252:00000063
#0625b:00000053
#05052:0063000000000000
#05255:0063000000000000
#05459:00000014
#05453:00000014
#05359:00000054
#05353:00000064
#0135b:0000000000000043
#01352:00000033
#03252:1323
#03255:00630000
#03258:13000063
#0335b:23000000000000000000000000000023
#03352:0023
#03355:00530000
#03358:00000063
#03455:0053000000000000
#03458:0063000000000000
#0015b:00630000
#00155:00530000
#00152:0000002300000000
#00158:0000002300000000
#00455:63
#00452:00000053
#03656:00000063
#04458:0053
#0445b:43530053
#04452:33
#04455:00130013
#0515b:0053000000000000
#05155:00000033
#05158:0000000000000043
#01852:63
#01855:0023000000000000
#0175b:00000053
#01758:0000000000000023
#06357:00000012
#00558:53
#0075b:53000053
#00852:63
#02952:0000002400000000
#0295a:0000002400000000
#02954:00540000
#02958:00540000
#02857:00000000000053260000000000000000
#04257:00000053
#01152:6300000063000013
#01158:6300000063000013
#0115b:00530053
#01155:00530053
#00952:00000063
#0095b:00000063
#03554:00130000
#0355b:0013
#03558:00000000000000000000000000000046
#03552:00000000000000000000000000000036
#04959:00535353
#04952:0000000000230000
#04956:0000000000000023
#0495b:0000002300000023
#04957:0000000000230000
#04954:00005353
#01055:13
#01058:13
#0305b:13
#03052:13
#03752:00330000
#0375b:0043
#0435b:00430063
#04352:00003353
#04355:0000000000000023
#04358:0000000000000023
#04657:00130000
#04655:0063
#04652:00630063
#04658:00000013
#05655:00630000
#05758:00530000
#06152:00000036
#06158:0000000000460000
#00652:00000063
#0215b:002300000000000000000000000000000000000000000000
#02155:00630000
#02152:000000000000000000000000002300000000000000000000
#02158:00000053
#0225b:002300000000000000000000000000000000000000000000
#0405b:13
#04056:13
#0013b0:00132300
#001380:0000005300000000
#001351:00132300
#001321:0000005300000000
#002321:00000013
#002341:0000000000000033
#003351:23
#003380:13
#003390:0033000000000000
#0033b0:00230000
#0033b0:00000013
#0033a0:0000000000000033
#004380:23
#004351:13
#004331:0033000000000000
#004321:00230000
#004321:00000013
#004341:0000000000000033
#005351:23
#005380:13
#0053a0:0033000000000000
#0053b0:00230000
#006320:00000013
#006340:0000000000000033
#007360:23
#0073b1:13
#007391:0033000000000000
#007371:00230000
#0073b1:00000013
#007391:0000000000000033
#008371:23
#008320:13
#008340:0033000000000000
#008360:00230000
#0083b1:00132300
#008350:00001323
#008381:00000013
#009381:23
#009320:13230000
#0093b1:00000000130000000000000033333300
#009391:00000000000000000000000000000033
#010381:23
#009320:00000000000000000000000013333333
#010350:23
#011320:13
#011350:0023000000000000
#011381:13
#0113b1:0023000000000000
#0113b1:00130000
#011381:0000002300000000
#011350:00130000
#011320:0000002300000000
#011320:0013
#011350:0000000000230000
#011381:0013
#0113b1:0000000000230000
#0113b1:00000013
#011381:0000000000000023
#011350:00000013
#011320:0000000000000023
#0173b0:00000013
#017380:0000000000000053
#0183b0:23
#018321:13230000
#018351:0053000000000000
#019321:0000132300000000
#0193b1:0000000013230000
#019321:0000000000001323
#020351:00130023
#020321:000000000000000000000000000000000000000000330000000053000000330000000000000000000000000000000000
#020380:00000013
#0203b0:00000000000000000000000000000033
#0213b0:005300330000000000000000000000000000000000000000
#021380:00230000
#021351:00130023
#021321:000000000000000000000000000000000000000000330000000053000000330000000000000000000000000000000000
#021380:00000013
#0213b0:00000000000000000000000000000033
#0223b0:005300330000000000000000000000000000000000000000
#022380:00230000
#023360:00000013
#023350:00000000000000000000000000330000
#023340:00000000000000000000000000003333
#024330:33330000000000000000000000000000
#024320:0023000000000000
#024380:00133323
#0243b0:0000003300330000
#025350:00133323
#025320:0000003300330000
#026320:0013002300000000
#026350:00530000
#0283a0:00130000
#028370:00000000000053562300000000000000
#028341:00132300
#029381:00142400
#0293a1:0000005400000000
#029340:00142400
#029320:0000005400000000
#0303a0:00132300
#030370:0000003300000000
#030341:0000133323000000
#031361:0000143424000000
#032351:00130033
#032321:0053
#033351:00330033
#033321:0053
#034351:0033000000000000
#035321:25
#032380:00130033
#0333b0:53000000000000000000000000000053
#033380:00330033
#034380:0033000000000000
#035390:25
#035390:0000000000000014
#035380:00000000000000000000000000000026
#035331:0000000000000014
#035321:00000000000000000000000000000026
#036361:00000013
#037321:23
#039361:00130000
#039321:0000003323000000
#0393b0:00130000
#039370:0000003323000000
#039370:00000013
#0393b0:0000000000000033
#0403b0:23
#039321:00000013
#039361:0000000000000033
#040361:23
#041321:00000013
#041351:0000000000000023
#0413b0:0000000000000013
#042380:23
#042321:13
#042351:0023000000000000
#042371:00000013
#0433b1:23
#043321:00000013
#043351:0000000000000053
#044321:23
#0433b0:00000013
#043380:0000000000000053
#0443b0:23
#0443b0:00130053
#044380:0053
#045380:23
#0453b0:00000000000000000000000013333333
#046390:33330000000000000000000000000000
#046380:00003333000000000000000000000000
#046370:00230000
#046321:00130053
#046351:0053
#047351:23
#047321:000000000000000000000000000000000000133333333333
#048321:333333000000000000000000000000000000000000000000
#048331:0033000000000000
#048341:003300000000
#048351:000000000033000000000000000000000000000000000000
#048361:00230000
#0483b0:0000132300000000
#048351:0000001323000000
#048380:0000000013230000
#048321:0000000000132300
#0483b0:0000000000001323
#048351:0000000000000013
#049351:23
#049380:1323000000000000
#049321:0013230000000000
#049390:00135353
#0493b0:0000005300000053
#049370:0000000000530000
#050390:23
#049341:00001353
#049321:0000000000530000
#049361:0000000000000053
#050341:23
#050321:0013000000000000
#050351:0000002300000000
#0513b1:0013000000000000
#051381:0000002300000000
#052351:0013000000000000
#052321:0000002300000000
#053391:00000014
#0543a1:0000000000000000325232523252325232523252325232520000000000000000
#054391:00000000000000000000000000000000005400540054005400540054005400540000000000000000000000000000000024000000000000000000000000000000
#054381:00000000000000000000000000000000000000000000000000000000000000000056005600560056005600560056005600000000000000000000000000000000
#053330:00000014
#054340:0000000000000000325232523252325232523252325232520000000000000000
#054330:00000000000000000000000000000000005400540054005400540054005400540000000000000000000000000000000024000000000000000000000000000000
#054320:00000000000000000000000000000000000000000000000000000000000000000056005600560056005600560056005600000000000000000000000000000000
#055380:00130000
#0553b0:0000003323000000
#056350:00130000
#056320:0000003323000000
#057380:00130000
#0573b0:0000003323000000
#062320:00000013
#063350:0000005323000000
#0623b1:00000013
#063381:0000005323000000
