This file was generated by Ched 2.6.2.0.
#TITLE ""
#ARTIST ""
#DESIGNER ""
#DIFFICULTY 0
#PLAYLEVEL
#SONGID ""
#WAVE ""
#WAVEOFFSET 0
#JACKET ""
#REQUEST "ticks_per_beat 480"
#00002: 4
#BPM01: 150
#00008: 01
#TIL00: ""
#HISPEED 00
#MEASUREHS 00
#00014:00131300
#00013:00000013
#00019:00131300
#0001a:00000013
#00012:23
#0001b:23
#00112:13130000
#00119:0000000000001313
#00114:00000000000000000000000000130013
#0011b:13130000
#0051b:00130013
#00518:0000000013000013
#00515:00000000000000130000000000000000
#00512:0000000000130000
#03612:00231300
#0361b:00231313
#03615:0000000000130000
#03618:0000001300000000
#0361f:00210000
#0241b:0000000013000013
#02413:14
#02419:14
#02412:00130000
#02418:00130000
#02415:0013
#0241a:0000003300330000
#02414:0000003300330000
#02515:13130000
#0251b:00130000
#02518:0013
#02512:0013
#02519:0000003300330000
#02513:0000003300330000
#03812:0013000013000000
#03818:1300001300000013
#0381b:00130013
#03815:0000130000130000
#03810:00410000
#0371b:00000013
#03715:0000000000000013
#03712:00142400
#0371a:00142400
#03716:0000001400000000
#02612:0013000000000000
#02618:00001313
#02615:0000000000130013
#02610:00000041
#02718:1300001300130000
#02715:00130013
#0271b:00001313
#02712:0013000000000000
#0411b:00000013
#04115:0000000000000013
#04118:1313
#04112:0000000000130000
#04218:1300000000130000
#04212:0013230013001300
#0421b:00231300
#04215:0000001300000000
#04018:0013
#04012:0000001300000000
#0401b:00130013
#04015:0000000000130013
#04415:0013
#04412:00130013
#0441b:0000001300001300
#04418:0000000000130000
#0451b:00000013
#04515:0000000000000013
#04514:00131300
#04519:00131300
#04518:13
#04618:1313
#04612:0013001300001300
#0461b:00130013
#04615:0000000000130000
#04718:0000001300001300
#04715:1313
#0471b:0000000000130000
#04712:00000000130000000000000000343434
#02215:0000001300000013
#0221b:00130013
#02218:00000000000000001300000000000013
#02212:0000000000130000
#02312:0013000000000000
#00212:00230013
#00215:0013
#00218:00000000000000130000000000000000
#0021b:0000230000130000
#00219:23
#00210:00410000
#00618:00000013
#00615:13000000000000130000000000000000
#00612:0013230000130000
#00619:0013
#0061b:00230000
#01218:00130013
#01212:0000001300000013
#01215:0013000000130000
#0121b:0013
#01018:0000230000001313
#0101b:0013
#01015:0013
#01012:00000000230000000000000000130000
#01010:00410000
#01318:0000130000130000
#0131b:1300000013000013
#01315:0013001300001300
#01312:00131300
#0111b:13
#01115:13
#01112:0013
#01118:0013
#06218:0000000013130000
#06212:00000000000000000013001300000000
#06215:00000000001300130000000000000000
#0621b:0000131300001300
#06115:00000000130000130000000000000000
#0611b:00000000130000130000000000000000
#06118:1300000000140000
#06112:13
#06114:00000024
#05915:13000023
#05912:00000000130000000000000000000013
#05918:0013000000000000
#0591b:00000023
#0581b:00001300000000000000000000000013
#05812:13000023
#05818:00000023
#01815:0013
#01818:00000000000000130000000000001300
#0181b:0000000000130000
#01812:00130013
#04312:00142414
#04318:0000000000000013
#0431a:00142414
#04315:0000000000000013
#04316:0000001400000000
#03212:0013
#0321b:0013
#03218:00130000
#03215:00130000
#03312:0013
#03315:00130000
#03318:00130000
#0331b:0013
#03415:0013000000000000
#03418:0013000000000000
#02012:0013000000000000
#02018:0013000000000000
#02010:00410000
#0351a:00000000130000001300000000000024
#03513:00131300
#03512:00000000000000000000000000000024
#06315:00000013
#0091a:00140000
#00918:0000000000140000
#01418:0000000000000013
#01415:00000013
#0141a:00330000
#01419:0000003300000000
#01413:0000003300000000
#01414:00330000
#01515:0000000000000013
#01515:0000000000000013
#01518:00000013
#01513:00330000
#01514:0000003300000000
#01519:00330000
#0151a:0000003300000000
#01715:1300001300001300
#0171b:00131313
#01718:0013000000130000
#01712:00131300
#05112:1300000000000013
#0511b:13000013
#05118:0013
#05115:0000000000130000
#0031b:00130013
#00318:0013
#00315:00000000000000130000000000000000
#00312:0000000000130000
#00412:00130013
#00415:0013
#00418:00000000000000130000000000000000
#0041b:0000000000130000
#0281f:00110000
#02812:13
#0281b:13
#00715:00000013
#00718:00000000000000130000000000000000
#00714:0013
#0071b:0000000000130000
#00712:00130000
#0161b:0013000000130000
#01612:00130013
#01618:0000001300000013
#01615:0013
#01912:1313
#0191b:0000130000000013
#01918:0000001300001300
#01915:0000000000130013
#03915:13230000
#03912:0013000000002300
#0391b:00230000
#03918:00000023
#0481b:0000001300001300
#04815:00343434000000001300000000001300
#04818:0000000000130000
#04812:00000013
#04918:1313
#04912:0013000013000000
#0491b:00130000
#04915:00130000
#05018:0013000000130013
#05012:0013001300000000
#0501b:0000001300000000
#05015:00001313
#05315:0013000000000000
#05318:00232415
#05314:0000001400000000
#05313:0000000000150000
#05312:13
#0531b:13
#05215:0013
#05218:0000000000000013
#05212:00000013
#0521b:0000000000130000
#05615:00000000130000000000000000000013
#05612:13000013
#0561b:0013000000000000
#05618:00000013
#05518:00000000130000000000000000000013
#0551b:13000013
#05515:00000013
#05512:0013000000000000
#05510:00410000
#05415:00000000000000000000000000000013
#05418:00000025
#05718:00000000130000000000000000000013
#0571b:13000013
#05712:0013000000000000
#05715:00000013
#06018:13
#0601b:00130013
#06015:0013000000001300
#0211b:00000000000000330000000000000000
#02112:00000000000000000000000000000033
#0365b:00000053
#02652:0053000000000000
#00252:00000053
#00259:13
#00658:00000053
#0115b:63
#01155:63
#01152:0053
#01158:0053
#0625b:00000053
#04358:0000000000000023
#04352:00001454
#0435a:00001454
#04355:0000000000000023
#04452:34
#0445a:44
#03252:0023
#0325b:0023
#03255:00630000
#03258:00630000
#03352:0023
#03355:00530000
#03358:00630000
#0335b:0023
#03455:0053000000000000
#03458:0063000000000000
#00152:00630000
#0015b:00530000
#0105a:14
#0095a:00540000
#00958:0000000000240000
#01755:00000063
#0175b:00000063
#0355a:00000000000000000000000000000014
#03552:00000000000000000000000000000014
#05152:0000000000000033
#0515b:00000043
#0035b:00000063
#00452:00000053
#00755:00000063
#03752:0014
#0375a:0014
#03958:00001353
#03952:00001353
#0395b:00530000
#03955:00530000
#04055:13
#0405b:13
#04252:00000063
#04955:00530000
#04952:0053
#04958:0053
#0495b:00530000
#05358:00000055
#05458:00000015
#05655:00530000
#05558:00630000
#05758:00630000
#05952:00530000
#0605b:00630000
#06355:00000013
#02458:00530000
#02452:00530000
#0245b:0023
#02455:0023
#02555:00530000
#0255b:00530000
#02552:0023
#02558:0023
#01355:00000013
#0135b:0000000000000013
#06154:00000014
#06158:0000000000140000
#001320:00130000
#001350:0023
#0013b1:00130000
#001381:0023
#002321:00000013
#003351:23
#0033b1:00000013
#004381:23
#004321:00000013
#005351:23
#006381:00000013
#0073b1:23
#007351:00000013
#008321:23
#008381:00132300
#008351:00000013
#009351:23
#0093a1:00140000
#009381:0000000000540000
#0103a1:24
#011351:13
#011321:00230000
#0113b0:13
#011380:00230000
#011380:0013
#0113b0:00000023
#011321:0013
#011351:00000023
#0143b1:0013000000000000
#0143a1:00330000
#014391:0000003300000000
#014381:0023
#014350:0013000000000000
#014340:00330000
#014330:0000003300000000
#014320:0023
#015320:0013000000000000
#015330:00330000
#015340:0000003300000000
#015350:0023
#015381:0013000000000000
#015391:00330000
#0153a1:0000003300000000
#0153b1:0023
#017351:00000013
#018321:23
#0173b0:00000013
#018380:23
#0203b0:00000000130000330000230000000000
#020350:00000000000000000000000013000033
#021350:0023000000000000
#021380:00130000
#0213b0:00000000000000330000230000000000
#021350:00000013
#021320:00000000000000000000000000000033
#022320:0023000000000000
#0233a0:0000140000342400
#023370:00000000000000340000000000000000
#024320:00130023
#024340:0000003300330000
#024350:0033
#024381:00130023
#0243a1:0000003300330000
#0243b1:0033
#0253b1:00130023
#025391:0000003300330000
#025381:0033
#025350:00130023
#025330:0000003300330000
#025320:0033
#026320:0013000000000000
#026350:0000002300000000
#028350:00130000
#030350:23
#0283b1:00132300
#0283a1:00000013
#0293a1:23
#029391:00132300
#029381:00000013
#030381:23
#030381:00130000
#032381:23
#030320:00132300
#030330:00000013
#031330:23
#031340:00132300
#031350:00000013
#032350:23
#032350:00130053
#032320:0053
#033350:00530053
#033320:0053
#034350:0053000000000000
#035320:25
#032381:00130053
#0323b1:0053
#033381:00530053
#0333b1:0053
#034381:0053000000000000
#035391:25
#0353a1:00000000000000000000000014000024
#035320:00000000000000000000000014000024
#0363b0:00000013
#037380:23
#039350:00130000
#039320:0023
#0393b1:00130000
#039381:0023
#039381:00000013
#0403b1:23
#039320:00000013
#040350:23
#041320:0013002300000000
#042320:00000013
#043350:23
#043320:00000014
#043350:0000000000000053
#044320:24
#0433a1:00000014
#043381:0000000000000053
#0443a1:24
#047321:00000000000000000000000014343434
#048351:34343434000000000000000000000000
#048321:00240000
#049351:00130023
#049321:0053
#0493b0:00130023
#049380:0053
#051350:0013002300000000
#052380:0013002300000000
#053380:00000015
#054390:0000000000000000335333533353335333533353335333530000000000000000
#054380:00000000000000000000000000000000005500550055005500550055005500550000000000000000000000000000000025000000000000000000000000000000
#054370:00000000000000000000000000000000000000000000000000000000000000000057005700570057005700570057005700000000000000000000000000000000
#055380:00130000
#0553b0:0023
#056350:00130000
#056320:0023
#057380:00130000
#0573b0:0023
#058320:0000132300000000
#058381:0000132300000000
#058351:0000000013230000
#0583b0:0000000013230000
#059320:00130000
#059350:0023
#0603b0:00130000
#060380:0023
#0623b0:00000013
#063380:00532300
