This file was generated by Ched 2.6.2.0.
#TITLE ""
#ARTIST ""
#DESIGNER ""
#DIFFICULTY 0
#PLAYLEVEL
#SONGID ""
#WAVE ""
#WAVEOFFSET 0
#JACKET ""
#REQUEST "ticks_per_beat 480"
#00002: 4
#BPM01: 150
#00008: 01
#TIL00: ""
#HISPEED 00
#MEASUREHS 00
#00014:0013
#00013:00000014
#00015:00120000
#00019:00121314
#00012:23
#0001b:23
#00112:15160000
#00116:0000001200000000
#00119:15
#00118:0000161200001313
#00115:00000000000000000000000000130013
#0051b:1300000000131300
#00515:0000001313000000
#00512:0000130000130000
#00516:00000013
#00518:00000000000000130000000000000000
#00514:0013000000000000
#0051a:00000000000000000000000000333333
#03612:00000000001300130000000000001300
#03617:0000000013000013
#03616:0000230000131300
#0361b:0000230000131300
#03619:0000001300000000
#0361f:00210000
#03812:0013130000000000
#03816:13000013000000000000130000000000
#0381b:1300001313130000
#03817:00000000000000130000000013000000
#03819:00130000
#03814:0013
#03810:00410000
#03717:0013000000000013
#0371b:00232313
#03718:0000001300000000
#03715:00000000000000130000000000000000
#03712:0013000023000013
#03716:00000000230000000000001300000000
#00816:1300001313000013
#00817:0000000000131300
#00815:0013000000000000
#00917:0013000000000000
#0091b:00000000230000000000001200000000
#00916:13000012
#0091a:00000000000000000000000000120000
#00915:0000000000000012
#00919:00000000000000000000000000000012
#00912:00230000
#02612:0013000000000000
#0261b:1300001313000000
#02616:14001312
#02617:0013000000120000
#0261c:0000000000120000
#0261a:00000012
#02614:0000000000000012
#02618:0000000000000012
#02610:00000041
#04019:0013000000001300
#04018:0000001313000000
#04012:0000000000130000
#04016:0000000000000013
#04015:00000000000000130000000000000000
#04017:0000000000130000
#0401b:0000000000000013
#04014:0013000000001300
#04112:1300001300000000
#04117:13000000000000130000000000000000
#04114:0013
#04116:0000000000130000
#04119:00000000000000000013000000000000
#04115:0013000000000000
#0411b:0013000000000000
#04418:0000130000131300
#04412:00230013
#04416:0013
#0441b:0000001313000013
#04717:00130000
#04712:1300131300000000
#04718:00000000000000130000000012000000
#04715:000000000000000000000000000000000000000000000000130000000000000000130000000000000000000000001200
#0471b:0013000000130000
#04713:000000000000000000000000000000000000001200000000
#04719:000000000012
#04714:0000000000000012
#0471a:000000000000000000000012
#04716:0013000000000000
#05017:0013001300000000
#05012:1313000013000000
#05016:0000130000141414
#0501b:00230013
#0521b:0013000013001300
#05217:0013001300130000
#05216:00001313
#05212:0000000000130000
#05219:0000000000000013
#05214:0000000000000013
#05312:1300000013000000000000000000000023000000000000000000001400000014
#05316:00130000
#0531b:0000231300000000
#05317:1313
#05314:0000000000000000000000000000000000000000130000000014000000140000
#05313:00000000000000000000000014141414
#05319:00000000000000000000130014141414
#05318:0000000000000000000000000000000000000000000000000014000000140000
#0531a:0000000000000000000000000000000000000000000000000000001400000014
#02016:0013130000000013
#0201b:00001300230000000000130000000013
#02017:0000001313001300
#02014:00000000000000000000001300000000
#02012:00000000000000130000000013000000
#02013:0000003333000000
#0201a:0000000000000033
#02010:00410000
#02215:0000130000000013
#02217:0000001200001200
#0221c:00000012
#02218:00000000000000001200000000000013
#02212:0013001200000000
#0221b:00130000
#02214:0012
#0221a:3300000000120000
#02216:1300000000120000
#02219:00000013000000000000000000000000
#0231b:0013000000000000
#02312:0013000000000000
#02315:00000000130000000000000000333300
#02318:00000000130000000000000000000033
#02319:0000000000130000
#02314:00000000000000000000130000000033
#0231a:00000000000000000000000000333300
#00312:0000130000130013
#00317:0000000000130000
#0031b:13000000000000130000000013000000
#00316:0000001313001300
#00314:0013000000000000
#00216:0000000000130000
#00212:00000000000000130000000013000000
#00217:00001313
#0021b:2300000000130013
#0021a:00240000
#00210:00410000
#00616:0000000000131300
#00612:00000000240000130000000013000000
#00617:0013
#00615:0000000000000013
#0061b:0000000000130000
#0061a:33
#00619:00333333000000000000000000000000
#01212:00000000000000001313001200000000
#01216:00000012000000000000000000000012
#0121a:0000120000000012
#01214:00000000001200000000000000120000
#0121c:0012000000000000
#01218:0000001200001200
#0121b:00000000000000001313000000000000
#01012:00231312
#0101b:00231300
#01016:0000001300000000
#01017:0000000000130000
#01014:12
#01018:00120000000000000000000000000000
#01013:0012000000000000
#01015:0000000000000012
#01019:00000000000000000000000000120000
#01010:00410000
#01315:00000000130000130000000013000000
#01318:00000013000000001300001300001300
#0131b:0000131300001300
#01312:0013000013130013
#0131c:12
#01416:0000001200000013
#01413:00000012000000000000001200000000
#01418:0012000000120000
#0141b:13000000000000120000000000001300
#0141a:00120012
#01414:0012
#01415:13
#01715:0013130000000000
#01712:1200001300000000
#01717:0000001300000013
#01714:0014
#01718:00000013000000000000140000000000
#0171c:12
#0171b:00000013
#01716:00000013
#0621a:00000014
#0621b:00131300
#06218:00000000001300000013000000000000
#06215:0000001300130000
#06212:00000000000000130000001300000000
#01812:0000130000130000
#0181b:00131300
#01815:00001300000000130000000000000000
#01819:0000000000001313
#01814:0000000000001313
#01816:13
#01818:00000013000000000000000000000000
#04312:00232314
#04316:0013000000000013
#0431a:00000014
#04317:000000000000000000000000000000000000000000000000000000000000000000000000000000000000000000000000000000000000000000000000000000000000000000000000000000000000000000000000000000000000000000000000000000000000000000000000000000000000000000000000000000000000000000000000000000000000000000000000000000000000000000000000000000000000000000000000000000000000000000000000000000000000000000000000000000000000000000000000000000000000000000000000000000000000000000000000000000000000000000000000000000000000000000000000000000000000000000000000000000000000000000000000000000000000000000000000000000000000000000000000000000000000000000000000000000000000000000000000000000000000000000000000000000000000000000000000000000000000000000000000000000000000000000000000000000000000000000000000000000000000000000000000000000000000000000000000000000000000000000000000000000000000000000000000000000000000000000000000000000000000000000000000000000000000000000000000000000000000000000000000230000000000000000000000000000000000000000000000000000000000000000000000000000000000000000000000000000000000000000000000000000000000000000000000000000000000000000000000000000000000000000000000000000000000000000000000000000000000000000000000000000000000000000000000000000000000000000000000000000000000000000000000000000000000000000000000000000000000000000000000000000000000000000000000000000000000000000000000000000000000000000000000000000000000000000000000000000000000000000000000000000000000000000000000000000000000000000000000000000000000000000000000000000000000000000000000000000000000000000000000000000000000000000000000000000000000000000000000000000000000000000000000000000000000000000000000000000000000000000000000000000000000000000000000000000000000000000000000000000000000000000000000000000000000000000000000000000000000000000000000000000000000000000000000000000000000000000000000000000000000000000000000000000000000000000000000000000000000000000000000000000000000000000000000000000000000000000000000000000000000000000000000000000000000000000000000000000000000000000000000000000000000000000000000000000000000000000000000000000000000000000000000000000000000000000000000000000000000000000000000000000000000000000000000000000000000000000000000000000000000000000000000000000000000000000000000000000000000000000000000000000000000000000000000000000000000000000000000000000000000000000000000000000000000000000000000000000000000000000000000000000000000000000000000000000000000000000000000000000000000000000000000000000000000000000000000000000000000000000000000000000000000000000000000000000000000000000000000000000000000000000000000000000000000000000000000000000000000000000000000000000000000000000000000000000000000000000000000000000000000000000000000000000000000000000000000000000000000000000000000000000000000000000000000000000000000000000000000000000000000000000000000000000000000000000000000000000000000000000000000000000000000000000000000000000000000000000000000000000000000000000000000000000000000000000000000000000000000000000000000000000000000000000000000000000000000000000000000000000000000000000000000000000000000000000000000000000000000000000000000000000000000000000000000000000000000000000000000000000000000000000000000000000000000000000000000000000000000000000000000000000000000000000000000000000000000000000000000000000000000000000000000000000000000000000000000000000000000000000000000001300000000000000000000000000000000000000000000000000000000000000000000000000000000000000000000000000000000000000000000000000000000000000000000000000000000000000000000000000000000000000000000000000000000000000000000000000000000000000000000000000000000000000000000000000000000000000000000000000000000000000000000000000000000000000000000000000000000000000000000000000000000000000000000000000000000000000000000000000000000000000000000000000000000000000000000000000000000000000000000
#04318:00000000000000130000130000000000
#04315:00000000000013000000001300000000
#0431b:0013000023000000
#00416:0000000000130000
#00412:13000000000000130000000013000000
#00417:0000001313001300
#0041b:0000130000130013
#00419:0013000000000000
#0241b:0000000000000013
#02416:0000000000000014
#02413:00330000000000000000000000000000
#02414:33
#02417:33330000000000000000000000000000
#03513:0000000000000014
#03517:0013000000130000
#03512:00000000130000001300000013000026
#0351b:13131313
#03516:1300001300000000
#03519:0000000000000014
#03518:00000000000000000000000000000026
#01517:1300000000000013
#01515:00001200000000120000120000000000
#01519:00000012000012000000001200000000
#01512:1300120000001213
#0151c:0012
#03418:0013000000000000
#03417:00000013
#03412:0000001300001300
#03416:0013
#0341b:00131300
#03414:1200000000130000
#03419:0000000000000013
#03415:0013000000000000
#0391b:0013001300002300
#03916:0000001300002300
#03914:0000000000130000
#03919:0000000000130000
#03917:0000230000000013
#03912:0000230000000013
#0451b:13000012
#04516:00000000120000000000000000120000
#0451a:00000000000000120000000000001200
#04515:00000000000000000000000000000012
#0451c:00120000
#04512:0013000000120000
#04518:0000000000120000
#04514:00000000000000120000000000000000
#04517:0013000000000000
#01616:13
#0161c:0012
#01618:0000000000120000
#0161b:1300000000000012
#01612:0012000000001200
#01615:0000000000000012
#01614:0000001200120000
#01912:1300000000001313
#0191b:13
#01917:0000130000000013
#06312:001c
#05413:14000000140000001400000014000000001400000014000000140000001400000014000000140000001400000014000024000000000000000000000000000000
#05413:00000000000000000000000000000000001400000014000000140000001400000014000000140000001400000014000000000000000000000000000000000000
#05414:0014000000140000121212121212121212121212121212120000000000000000
#05414:0000000000000000121212121212121212121212121212120000000000000000
#05412:00000000000014000000000000001400000000160000001600000016000000160000001600000016000000160000001600000000000000000000000000000000
#05412:00000000000000000000000000000000000000160000001600000016000000160000001600000016000000160000001600000000000000000000000000000000
#05419:14000000140000001400000014000000001400000014000000140000001400000014000000140000001400000014000024000000000000000000000000000000
#05418:00001400000000000000140000000000000000160000001600000016000000160000001600000016000000160000001600000000000000000000000000000000
#0541a:0000001400000014121212121212121212121212121212120000000000000000
#0541b:00000000000000000000000000000013
#0281f:00110000
#0281b:13
#02817:00000000000013160000000000000000
#0281a:0000230000000013
#02813:0000000000000013
#02814:00230000
#02815:00000023
#02818:00000023
#00717:1300000000131300
#0071b:00000000130000130000000013000000
#00716:0013
#00714:0000001300000000
#00712:0000000000130000
#00718:0013000000000013
#01119:1200000000120000
#0111c:0012000012000000
#01115:0000120000000012
#01112:0000001200001200
#02512:1300000000000013
#02516:1400000000000014
#02712:1213130000000000
#02718:0000001313000000
#02715:0000000000131300
#0271b:0000000000000013
#02717:12
#04619:12
#04614:00120000000000000000000000000000
#04618:0012000000000000
#04613:00000012000000000000000000000000
#04615:0000130000131300
#0461b:00230013
#04617:0013
#04612:0000001313000013
#04818:1200000000000013
#04813:001200000000000000000000000000000000000000000000
#04819:001200000000000000000000
#04814:0012000000000000
#0481a:001200000000
#04815:000000000012000000130000000000130000000000000000
#04812:00130000
#04817:0013
#0491b:00000000130013130000000000000000
#04916:1313
#04919:00000000000000000000131300000000
#04914:00000013
#04917:00000000000000000000000000001313
#04918:0013000000000000
#05112:13231313
#05116:0013001300130000
#05117:00131300
#0511b:0013000000131300
#05118:00000000000000000000000000130000
#05115:0000000000000013
#05516:1300001300000000
#05514:0013000000000000
#05517:00130000
#0551b:0000001300130000
#05515:0000000000130000
#05512:00000000130000000000000023000013
#05519:0013000000000000
#05518:0013
#05510:00410000
#0571b:00000000000013000000130000000013
#05714:00001300000000000000000000000013
#05716:1300001300000000
#05719:0013000000000000
#05717:00130000
#05715:0000000000130000
#05712:00130023
#05718:0013
#05817:13001300000000000000000000000013
#05812:0013000012002400
#0581c:00120000
#0581a:00000000001200000000000024000000
#05816:00000000000012000000001200000000
#05818:00000000000000120000120000000000
#05814:00000000000000000012000000000000
#05815:00120000
#05917:0013001300000000
#05916:00000000000000000000130000000013
#0591b:1300130000130000
#05912:0013001300002300
#05915:00130000
#05918:0013
#06019:00000013
#06014:00000013
#06015:0000000013130000
#06016:0013001300000000
#06012:13130000
#0601b:0013001300000000
#06018:00000000130000000013000000000000
#06114:13
#06119:13
#06117:00140000
#06115:00000000000000140000000000000000
#06112:00140028
#0611a:00000000000000140000000000000000
#06116:0000000000180000
#02912:0000001400000000
#02916:00240000
#02914:00000023
#0291a:00000023
#03017:00000000000000000000000000001316
#03014:00230023
#03019:00230000
#03012:0022
#0301c:0022
#0301a:00000023
#0311a:0000001300000000
#03113:0000001300000000
#03115:00230000
#03118:00230026
#03112:00000026
#04214:0000001300000000
#0421b:00000000001300130000000000001300
#04216:0000000013000013
#04217:0000230000131300
#04212:0000230000131300
#04215:0013000000000000
#03212:00130023
#0321b:00000000230000000000000013000012
#03215:00000000001200000000001200000000
#03217:0000001200000012
#03213:00000000000000120000000000000000
#0321a:0012
#03216:00000000000000000012000000000000
#03218:0000000000120000
#03219:00000000000000000000000000120000
#03312:00130023
#0331b:00000000230000000000000013000012
#03314:12
#03318:00120000000000000000120000000000
#03316:00001200000000000012000000000000
#03319:00000012000000000000000000120000
#03315:00000000001200000000001200000000
#03317:0000001200000012
#03313:00000000000000120000000000000000
#0331a:0012
#05619:0013000000000000
#05617:1300001300000000
#05614:0013000000000000
#0561b:00000000130000000000000023000013
#05616:00130000
#05612:0000001300130000
#05618:0000000000130000
#05615:0013
#02112:00001300000000130000000013000000
#02116:1300130000000013
#02117:0000001313001300
#0211b:00000000130000000000130000000013
#02114:00000000000000000000001300000000
#02119:00000013000000000000000000000000
#0211a:3300000000000033
#02113:0000003333000000
#0365b:00000053
#03656:00000053
#03652:0000000000000023
#03657:0000000000000023
#04458:00430043
#04452:34530063
#04456:0063
#0445b:0033
#0445a:44
#02056:00630000
#02057:00000053
#0205b:00000000000000000000000000000023
#02052:00000000000000230000000000000000
#02652:0053000000000000
#00656:00000063
#0625a:00000054
#05257:0053000000000000
#0375b:00434300
#03756:00330000
#03752:0033
#01355:00000033
#01358:0000000000000043
#04356:0000000000000023
#04352:00333354
#0435a:00000054
#04357:000000000000000000000000000000000000000000000000000000000000000000000000000000000000000000000000000000000000000000000000000000000000000000000000000000000000000000000000000000000000000000000000000000000000000000000000000000000000000000000000000000000000000000000000000000000000000000000000000000000000000000000000000000000000000000000000000000000000000000000000000000000000000000000000000000000000000000000000000000000000000000000000000000000000000000000000000000000000000000000000000000000000000000000000000000000000000000000000000000000000000000000000000000000000000000000000000000000000000000000000000000000000000000000000000000000000000000000000000000000000000000000000000000000000000000000000000000000000000000000000000000000000000000000000000000000000000000000000000000000000000000000000000000000000000000000000000000000000000000000000000000000000000000000000000000000000000000000000000000000000000000000000000000000000000000000000000000000000000000000000430000000000000000000000000000000000000000000000000000000000000000000000000000000000000000000000000000000000000000000000000000000000000000000000000000000000000000000000000000000000000000000000000000000000000000000000000000000000000000000000000000000000000000000000000000000000000000000000000000000000000000000000000000000000000000000000000000000000000000000000000000000000000000000000000000000000000000000000000000000000000000000000000000000000000000000000000000000000000000000000000000000000000000000000000000000000000000000000000000000000000000000000000000000000000000000000000000000000000000000000000000000000000000000000000000000000000000000000000000000000000000000000000000000000000000000000000000000000000000000000000000000000000000000000000000000000000000000000000000000000000000000000000000000000000000000000000000000000000000000000000000000000000000000000000000000000000000000000000000000000000000000000000000000000000000000000000000000000000000000000000000000000000000000000000000000000000000000000000000000000000000000000000000000000000000000000000000000000000000000000000000000000000000000000000000000000000000000000000000000000000000000000000000000000000000000000000000000000000000000000000000000000000000000000000000000000000000000000000000000000000000000000000000000000000000000000000000000000000000000000000000000000000000000000000000000000000000000000000000000000000000000000000000000000000000000000000000000000000000000000000000000000000000000000000000000000000000000000000000000000000000000000000000000000000000000000000000000000000000000000000000000000000000000000000000000000000000000000000000000000000000000000000000000000000000000000000000000000000000000000000000000000000000000000000000000000000000000000000000000000000000000000000000000000000000000000000000000000000000000000000000000000000000000000000000000000000000000000000000000000000000000000000000000000000000000000000000000000000000000000000000000000000000000000000000000000000000000000000000000000000000000000000000000000000000000000000000000000000000000000000000000000000000000000000000000000000000000000000000000000000000000000000000000000000000000000000000000000000000000000000000000000000000000000000000000000000000000000000000000000000000000000000000000000000000000000000000000000000000000000000000000000000000000000000000000000000000000000000000000000000000000000000000000000000000000000000000000000000000000000002300000000000000000000000000000000000000000000000000000000000000000000000000000000000000000000000000000000000000000000000000000000000000000000000000000000000000000000000000000000000000000000000000000000000000000000000000000000000000000000000000000000000000000000000000000000000000000000000000000000000000000000000000000000000000000000000000000000000000000000000000000000000000000000000000000000000000000000000000000000000000000000000000000000000000000000000000000000000000000000
#0435b:0043
#00152:00660000
#00156:0000002200000000
#00158:0000562200000000
#02355:00530000
#02358:00530000
#0455b:33
#04556:33
#05052:3363000000000000
#05056:00230000
#06357:00000012
#06352:005c
#05356:00130000
#05357:0013
#05353:00000000000000000000000054545454
#05354:0000000000000000000000000000000000000000000000000024000000240000
#05352:0000000000000000000000000000000000000000000000000000002400000024
#05359:00000000000000000000000064646464
#05358:0000000000000000000000000000000000000000000000000024000000240000
#0535a:0000000000000000000000000000000000000000000000000000002400000024
#05453:54000000540000005400000054000000005400000054000000540000005400000054000000540000005400000054000014000000000000000000000000000000
#05453:00000000000000000000000000000000005400000054000000540000005400000054000000540000005400000054000000000000000000000000000000000000
#05454:0024000000240000222222222222222222222222222222220000000000000000
#05454:0000000000000000222222222222222222222222222222220000000000000000
#05452:00000000000024000000000000002400000000560000005600000056000000560000005600000056000000560000005600000000000000000000000000000000
#05452:00000000000000000000000000000000000000560000005600000056000000560000005600000056000000560000005600000000000000000000000000000000
#05459:64000000640000006400000064000000006400000064000000640000006400000064000000640000006400000064000014000000000000000000000000000000
#05458:00002400000000000000240000000000000000660000006600000066000000660000006600000066000000660000006600000000000000000000000000000000
#0545a:0000002400000024222222222222222222222222222222220000000000000000
#0175b:00000053
#01757:0000000000000023
#02456:0000000000000014
#0245b:0000000000000013
#02552:13
#02556:14
#03552:00000000130000000000000013000036
#0355b:0013
#03558:00000000000000000000000000000046
#05152:00000033
#05155:0000000000000033
#0515b:0053000000000000
#05157:00230000
#04956:0033
#04954:00000033
#05556:0000002300000000
#05552:00630000
#05558:00005333
#0555b:0000000000230000
#06157:00440000
#06155:00000000000000340000000000000000
#06156:0000000000480000
#06152:00000038
#0345b:00230000
#03458:0063000000000000
#02857:00000000000053260000000000000000
#0285a:0000000000000023
#02853:0000000000000023
#02855:00000053
#02858:00000053
#02952:0000002400000000
#02956:00540000
#03057:00000000000000000000000000005326
#03054:33
#0305a:43
#0315a:0000002300000000
#03153:0000002300000000
#03155:00530000
#03158:00530000
#03258:13
#03252:13
#03956:0000002300006300
#03952:0000530033000023
#0395b:0000002300006300
#03957:0000530033000023
#0415b:0063000000000000
#04852:00130000
#0055b:53000063
#0025b:43
#00252:00000063
#04655:00330033
#0465b:00630053
#04657:0053
#04652:0043
#04752:43
#04757:43
#05955:00230000
#05952:0000006300000000
#0595b:0000000000530000
#05958:00002343
#01152:00000012
#01158:0000000000000012
#00952:00330000
#0095b:00430000
#02156:00630000
#02157:00000053
#0215b:00000000000000000000000000000023
#02152:00000000000000230000000000000000
#04257:00000063
#04252:00000063
#0425b:0000000000000023
#04256:0000000000000023
#0035b:53000053
#00452:63000063
#06058:00230000
#0605b:0000005300000000
#0405b:43
#04056:43
#00757:53000053
#00856:63
#05657:0000002300000000
#0565b:00530000
#05655:00006343
#05652:0000000000230000
#05756:0000002300000000
#05752:00630000
#05758:00005333
#0575b:0000000000230000
#001320:00162600
#001360:0000005200000000
#001381:0000165226000000
#002321:00000013
#003371:23
#0033b0:13
#003360:00230000
#0033b0:00000013
#004360:23
#004321:13
#004371:00230000
#004321:00000013
#005371:23
#0053b0:13
#005360:00230000
#0053b0:00000013
#0053a0:00000000000000000000000000333333
#0063a0:33
#006390:00333333000000000000000000000000
#006360:00230000
#006360:00000013
#0073b0:23
#007371:13
#007321:00230000
#007371:00000013
#008321:23
#008360:13
#0083b0:00230000
#008321:0000132300000000
#0083b1:0000000013230000
#008321:0000000000001323
#0093b1:1323000000000000
#011361:1222000000000000
#0113a1:0000122200000000
#011341:0000000012220000
#011381:0000000000001222
#016381:0012002200000000
#0173b1:00000013
#017371:0000000000000053
#0183b1:23
#019321:00130000
#019361:0000002300000000
#0193b0:0000001300000000
#019370:0023
#019321:0013
#019361:0000000000230000
#0193b0:0000000000130000
#019370:00000023
#020360:0000130000230000
#020330:0000003333000000
#020320:00000000000000530000000000000000
#020370:00000013
#0203a0:0000000000000033
#0203b0:00000000000000000000000000000053
#0213a0:33
#021370:0023000000000000
#021360:0000130000230000
#021330:0000003333000000
#021320:00000000000000530000000000000000
#021370:00000013
#0213a0:0000000000000033
#0213b0:00000000000000000000000000000053
#0223a0:33
#022370:0023000000000000
#023350:00130000
#023320:00000000000000230000000000000000
#023381:00130000
#0233b1:00000000000000230000000000000000
#0233b1:00000013
#0233a1:00000000000000000000000000333300
#023381:00000000000000000000000000000033
#024371:33330000000000000000000000000000
#024361:0023000000000000
#023370:00000013
#023350:00000000000000000000000000333300
#023340:00000000000000000000000000000033
#024340:33
#024330:00330000000000000000000000000000
#024320:0023000000000000
#024320:00133323
#024360:0000003300330000
#024371:00133323
#0243b1:0000003300330000
#0253b1:00133323
#025371:0000003300330000
#025360:00133323
#025320:0000003300330000
#026320:0013000000000000
#026360:0000002300000000
#027360:0013230000000000
#027350:0000001323000000
#027380:0000000000132300
#027370:0000000000000013
#028370:23
#028340:00132300
#0283a1:00130000
#028371:00000000000053562300000000000000
#028351:00000013
#028331:0000000000000053
#029351:23
#028380:00000013
#0283a0:0000000000000053
#029380:23
#029360:00142400
#029320:0000005400000000
#029340:0000000000001333
#030340:23
#0293a1:00000013
#029371:0000000000000033
#0303a1:23
#030391:00000000135323000000000000000000
#030371:000000000000000000000000000000000000000000000000000000000000000000000000000000000000000000000000000000000000000000000055000000000000000000000000000000000000000000000000000000000000000000000000000000000000000000000000000000000000000000000000000000000000000000000000000000000000000000000000000000000000000000000000000000000000000000000000000000000000000000000000000000000000000000000000
#030340:000000000000000000000000000000000000000000000000000000000000000000000000000000000000000000000000130000000000000000000053550000000000000000000000230000000000000000000000000000000000000000000000000000000000000000000000000000000000000000000000000000000000000000000000000000000000000000000000000000000000000000000000000000000000000000000000000000000000000000000000000000000000000000000000
#030320:0000000012220000
#0303c1:0000000012220000
#030341:00000013
#031341:23
#0303a0:00000013
#030370:00000000000000000000000000005356
#031370:23
#031350:00132300
#031330:0000005300000000
#031381:00132300
#0313a1:0000005300000000
#031381:000000000000000000000000000000000000000000000000000000000000000000000000000000000000000000000000000000000000000000000000000000000000000000000000000000000000000000000000000000000000000000000000000000000000000000000000000000000000000000000000000000000000000000000000000000000000000000000000000000000000000000000000000000000000000000000000000000000000000000000000000000000000000000000000000000000000000000000000000000000000000000000000000000000000000000000000000000000000000000000000000000000000000000000000000000000000000000000000000000000000000000000000000000000000000000000000000000000000000000000000000000000000000000000000000000000000000000000000000000000000000000000000000000000000000000000000000000000000000000000000000000000000000000000000000000000000000000000000000000000000000000000000000000000000000000000000000000000000000000000000000000000000000000000000000000000000000000000000000000000000000000000000000000000000000000000000000000000000000000000000000000000000000000000000000000000000000000000000000000000000000000000000000000000000000000000000000000000000000000000000000000000000000000000000000000000000000000000000000000000000000000000000000000000000000000000000000000000000000000000000000000000000000000000000000000000000000000000000000000000000000000000000000000000000000000000000000000000000000000000000000000000000000000000000000000000000000000000000000000000000000000000000000000000000000000000000000000000000000000000000160000000000000000000000000000000000000000000000000000000000000000000000000000000000000000000000000000000000000000000000565300000000000000000000000000000000000000000000000000000000000000000000000000000000000000000000000000000000000000000000000000000000000000000000000000000000000000000000000000000000000000000000000000000000000000000000000000000000000000000000000000000000000000000000000000000000000000000000000000000000000000000000000000000000000000000000000000000000000000000000
#032381:23
#031320:000000000000000000000000000000000000000000000000000000000000000000000000000000000000000000000000000000000000000000000000000000000000000000000000000000000000000000000000000000000000000000000000000000000000000000000000000000000000000000000000000000000000000000000000000000000000000000000000000000000000000000000000000000000000000000000000000000000000000000000000000000000000000000000000000000000000000000000000000000000000000000000000000000000000000000000000000000000000000000000000000000000000000000000000000000000000000000000000000000000000000000000000000000000000000000000000000000000000000000000000000000000000000000000000000000000000000000000000000000000000000000000000000000000000000000000000000000000000000000000000000000000000000000000000000000000000000000000000000000000000000000000000000000000000000000000000000000000000000000000000000000000000000000000000000000000000000000000000000000000000000000000000000000000000000000000000000000000000000000000000000000000000000000000000000000000000000000000000000000000000000000000000000000000000000000000000000000000000000000000000000000000000000000000000000000000000000000000000000000000000000000000000000000000000000000000000000000000000000000000000000000000000000000000000000000000000000000000000000000000000000000000000000000000000000000000000000000000000000000000000000000000000000000000000000000000000000000000000000000000000000000000000000000000000000000000000000000000000000000000000160000000000000000000000000000000000000000000000000000000000000000000000000000000000000000000000000000000000000000000000565300000000000000000000000000000000000000000000000000000000000000000000000000000000000000000000000000000000000000000000000000000000000000000000000000000000000000000000000000000000000000000000000000000000000000000000000000000000000000000000000000000000000000000000000000000000000000000000000000000000000000000000000000000000000000000000000000000000000000000000
#032320:23
#034380:0013002300000000
#0343b0:00530000
#036360:00000013
#036320:0000000000000053
#037360:23
#0363b1:00000013
#036371:0000000000000053
#0373b1:23
#038321:00000013
#038371:0000000000000023
#0383b0:0000000000000013
#039360:23
#039321:13
#039371:0023000000000000
#039321:00132300
#039361:0000003300000000
#039370:00132300
#0393b0:0000003300000000
#0393b0:00000013
#039370:0000000000000033
#0403b0:23
#039361:00000013
#039321:0000000000000033
#040361:23
#0413b1:0013000000000000
#041371:0000002300000000
#041321:00000000000000000000000013230000
#041380:00000000000000000000000000132300
#041351:00000000000000000000000000001323
#0413b0:00000000000000000000000000000013
#0423b0:23
#042321:13230000000000000000000000000000
#042380:00132300000000000000000000000000
#042370:00000013
#0423b0:0000000000000053
#043370:23
#042321:00000013
#042361:0000000000000053
#043321:23
#043321:00000014
#043361:0000000000000053
#044321:24
#0433a0:00000014
#043370:000000000000000000000000000000000000000000000000000000000000000000000000000000000000000000000000000000000000000000000000000000000000000000000000000000000000000000000000000000000000000000000000000000000000000000000000000000000000000000000000000000000000000000000000000000000000000000000000000000000000000000000000000000000000000000000000000000000000000000000000000000000000000000000000000000000000000000000000000000000000000000000000000000000000000000000000000000000000000000000000000000000000000000000000000000000000000000000000000000000000000000000000000000000000000000000000000000000000000000000000000000000000000000000000000000000000000000000000000000000000000000000000000000000000000000000000000000000000000000000000000000000000000000000000000000000000000000000000000000000000000000000000000000000000000000000000000000000000000000000000000000000000000000000000000000000000000000000000000000000000000000000000000000000000000000000000000000000000000000000000000000000000000000000000000000000000000000000000000000000000000000000000000000000000000000000000000000000000000000000000000000000000000000000000000000000000000000000000000000000000000000000000000000000000000000000000000000000000000000000000000000000000000000000000000000000000000000000000000000000000000000000000000000000000000000000000000000000000000000000000000000000000000000000000000000000000000000000000000000000000000000000000000000000000000000000000000000000000000000000000000000000000000000000000000000000000000000000000000000000000000000000000000000000000000000000000000000000000000000000000000000000000000000000000000000000000000000000000000000000000000000000000000000000000000000000000000000000000000000000000000000000000000000000000000000000000000000000000000000000000000000000000000000000000000000000000000000000000000000000000000000000000000000000000000000000000000000000000000000000000000000000000000000000000000000000000000000000000000000000000000000000000000000000000000000000000000000000000000000000000000000000000000000000000000000000000000000000000000000000000000000000000000000000000000000000000000000000000000000000000000000000000000000000000000000000000000000000000000000000000000000000000000000000000000000000000000000000000000000000000000000000000000000000000000000000000000000000000000000000000000000000000000000000000000000000000000000000000000000000000000000000000000000000000000000000000000000000000000000000000000000000000000000000000000000000000000000000000000000000000000000000000000000000000000000000000000000000000000000000000000000000000000000000000000000000000000000000000000000000000000000000000000000000000000000000000000000000000000000000000000000000000000000000000000000000000000000000000000000000000000000000000000000000000000000000000000000000000000000000000000000000000000000000000000000000000000000000000000000000000000000000000000000000000000000000000000000000000000000000000000000000000000000000000000000000000000000000000000000000000000000000000000000000000000000000000000000000000000000000000000000000000000000000000000000000000000000000000000000000000000000000000000000000000000000000000000000000000000000000000000000000000000000000000000000000000000000000000000000000000000000000000000000000000000000000000000000000000000000000000000000000000000000000000000000000000000000000000000000000000000000000000000000000000000000000000000000000000000000000000005300000000000000000000000000000000000000000000000000000000000000000000000000000000000000000000000000000000000000000000000000000000000000000000000000000000000000000000000000000000000000000000000000000000000000000000000000000000000000000000000000000000000000000000000000000000000000000000000000000000000000000000000000000000000000000000000000000000000000000000000000000000000000000000000000000000000000000000000000000000000000000000000000000000000000000000000000000000000000000000
#0443a0:24
#044320:00130033
#044360:0033
#045360:23
#0463b0:00130033
#046370:0033
#047370:23
#0483b0:0000133333332300
#0483c0:00000000005100510051005100000000
#048321:0000000000001333
#048331:00000000000000000000000000510051
#049321:3333230000000000
#049331:00510051000000000000000000000000
#050321:0013002300000000
#050361:00530000
#0513b1:0013002300000000
#051371:00530000
#052371:0013000000000000
#052321:0000002300000000
#053331:00000000000000000000000014545454
#053341:0000000000000000000000000000000000000000000000000054000000540000
#053321:0000000000000000000000000000000000000000000000000000005400000054
#054331:54000000540000005400000054000000005400000054000000540000005400000054000000540000005400000054000024000000000000000000000000000000
#054341:0054000000540000323232323232323232323232323232320000000000000000
#054321:00000000000054000000000000005400000000560000005600000056000000560000005600000056000000560000005600000000000000000000000000000000
#053390:00000000000000000000000014545454
#053380:0000000000000000000000000000000000000000000000000054000000540000
#0533a0:0000000000000000000000000000000000000000000000000000005400000054
#054390:54000000540000005400000054000000005400000054000000540000005400000054000000540000005400000054000024000000000000000000000000000000
#054380:00005400000000000000540000000000000000560000005600000056000000560000005600000056000000560000005600000000000000000000000000000000
#0543a0:0000005400000054323232323232323232323232323232320000000000000000
#055320:00132300
#055360:0000005300000000
#055381:00001323
#0553b1:0000000000530000
#0563b1:00132300
#056371:0000005300000000
#056350:00001323
#056320:0000000000530000
#057320:00132300
#057360:0000005300000000
#057381:00001323
#0573b1:0000000000530000
#059351:00132300
#059321:0000005300000000
#059380:00001323
#0593b0:0000000000530000
#060380:00132300
#0603b0:0000005300000000
#0623a0:00000014
#063320:00240000
#063320:001c
#063370:00000022
