This file was generated by Ched 2.6.2.0.
#TITLE ""
#ARTIST ""
#DESIGNER ""
#DIFFICULTY 0
#PLAYLEVEL
#SONGID ""
#WAVE ""
#WAVEOFFSET 0
#JACKET ""
#REQUEST "ticks_per_beat 480"
#00002: 4
#BPM01: 150
#00008: 01
#TIL00: ""
#HISPEED 00
#MEASUREHS 00
#00012:00140014
#0001a:00140014
#00113:00140000
#00119:00140000
#00614:0014
#0061a:00140014
#00712:00140014
#00718:0014
#01012:00140014
#01018:1614
#01010:00410000
#0111a:1414
#01114:00140000
#01112:00000014
#0161a:00140000
#01614:1414
#01618:00000014
#01812:00150000
#01819:00150000
#02312:00000014
#0231a:00000014
#02318:00140000
#02314:0014
#02612:00140000
#0261a:0014
#02614:00000014
#02610:00000041
#02714:00000014
#02712:00140000
#0271a:0014
#02718:14
#03014:14000014
#03018:00140000
#03413:00140000
#03412:00000014
#03419:00140000
#0341a:00000014
#03512:00141414
#0351a:00141414
#03612:00241414
#03618:0000001400140000
#0361f:00210000
#03914:14
#0391a:00140000
#03918:0014
#03912:00000014
#0381a:00140014
#03814:0014
#03810:00410000
#04812:0014
#0481a:00140000
#04818:00000014
#05318:00160026
#05312:0016
#05314:14
#0531a:14
#00912:00150016
#00919:00150000
#01712:14
#0171a:00140014
#01714:0014
#01912:00140000
#0191a:00000014
#02012:00141400
#0201a:00000014
#02010:00410000
#0211a:14000014
#02112:00140000
#02114:0014
#02218:14
#02818:14
#0281f:00110000
#03718:1626
#03712:00160000
#0401a:00140000
#04012:0014
#04018:00000014
#04014:14
#02918:00000014
#03218:14
#03212:00003434
#03114:00000014
#03118:00140000
#04418:0014
#04414:00000014
#04412:00140000
#0451a:14
#04512:00140014
#04518:0000000014000014
#0461a:0014
#04614:00000014
#04612:14140000
#04618:0014000000000000
#0471a:14
#04712:00140000
#04718:0014
#04914:14
#0521a:14000014
#05212:00141400
#05218:00141400
#05214:00000014
#05818:00000014
#05814:0014
#0581a:00140000
#00218:00000014
#00214:0014
#00213:14
#0021a:00240000
#00210:00410000
#00312:00140000
#00314:00000014
#00318:0014
#0041a:00140000
#00418:00000014
#00414:0014
#00813:00140000
#00819:00140000
#00812:00000014
#0081a:00000014
#0121a:00140000
#01212:00001414
#0131a:14001414
#01312:00140000
#0141a:00141400
#01412:14000014
#01512:14
#01518:00141400
#01514:00000014
#02519:00141414
#02413:00141414
#04118:14
#04112:00140000
#0411a:0014
#04114:00000014
#04214:1400001400140000
#0421a:00241414
#05012:00140000
#05018:0014
#05014:00000014
#0511a:14
#05112:00140000
#05118:0014
#05114:00000014
#06214:0000001400140000
#0621a:00141414
#06312:00000014
#05618:00140000
#05612:0014
#0561a:00000014
#05514:00140000
#0551a:0014
#05512:00000014
#05510:00410000
#05714:00140000
#0571a:0014
#05712:00000014
#04312:1626
#04318:00160000
#05914:00140014
#0591a:0014
#06018:00140000
#06012:0014
#03312:34343400
#01952:00540000
#0195a:00000064
#03054:14000064
#03058:00540000
#03758:0016
#03752:00160000
#00952:00150000
#00959:00150000
#02352:00000014
#0235a:00000014
#03258:14
#03158:00540000
#06352:00000014
#0625a:00000064
#00253:14
#0355a:00000014
#03552:00000014
#04358:00160000
#04352:0016
#005330:00140024
#019320:00140000
#019340:0024
#0193a0:00000014
#020380:24
#022320:00140034
#022340:0034
#023340:24
#028340:00142400
#028380:00000014
#029380:24
#029340:00142400
#030380:00140000
#0303a0:0024
#030340:00000014
#031320:24
#031380:00140000
#0313a0:0024
#032320:00143434
#033320:3434342a
#047320:0000000000001434
#048320:24
#0493a0:00143434
#0503a0:24
#053380:00000016
#054390:0000343434342400
#060380:00000014
#061380:34000000340000340000340024000000
#0623a0:00000014
#063380:0024
