This file was generated by Ched 2.6.2.0.
#TITLE "teo"
#ARTIST ""
#DESIGNER ""
#DIFFICULTY 0
#PLAYLEVEL
#SONGID ""
#WAVE ""
#WAVEOFFSET 0
#JACKET ""
#REQUEST "ticks_per_beat 480"
#00002: 4
#BPM01: 185
#00008: 01
#TIL00: ""
#HISPEED 00
#MEASUREHS 00
#00219:14
#00319:14
#00413:14
#00513:14
#00813:14
#01112:16
#01218:16
#01418:16
#01518:16
#01612:16
#01712:16
#01819:14
#02013:14
#02619:14
#02813:14
#02913:14
#03019:14
#0461f:11
#04619:14
#00619:14
#01018:16
#01010:41
#01312:16
#01919:14
#01910:41
#02113:14
#02719:14
#03113:14
#03110:41
#03219:14
#03313:14
#03512:16
#03618:16
#03418:16
#03712:16
#03819:14
#04013:14
#04010:41
#03919:14
#04113:14
#04713:14
#04819:14
#04913:14
#05018:16
#05112:16
#05218:16
#05313:14
#05319:14
#05519:14
#05613:14
#05610:41
#05713:14
#05819:14
#05919:14
#06013:14
#06113:14
#06119:14
#06313:14
#06419:14
#06519:14
#06613:14
#06713:14
#06819:14
#06919:14
#06913:14
#08213:14
#08019:14
#08119:14
#08313:14
#08419:14
#0701a:14
#07114:14
#07218:14
#07312:14
#0741a:14
#07514:14
#07618:14
#07712:14
#07710:41
#00719:14
#00913:14
#0541f:21
#05419:24
#05413:24
#06213:24
#06219:24
#022390:14
#023390:24
#024330:14
#025330:24
#042390:14
#043390:24
#044330:14
#045330:24
#078350:16
#079350:0026
#085330:1400000000000024
