This file was generated by Ched 2.6.2.0.
#TITLE "teo EX"
#ARTIST ""
#DESIGNER ""
#DIFFICULTY 0
#PLAYLEVEL
#SONGID ""
#WAVE ""
#WAVEOFFSET 0
#JACKET ""
#REQUEST "ticks_per_beat 480"
#00002: 4
#BPM01: 185
#00008: 01
#TIL00: ""
#HISPEED 00
#MEASUREHS 00
#0541b:00131313
#05417:0000001300130013
#05412:26
#05418:26
#0541f:21
#06915:00000013001300130013001300130013
#06918:0013131313131313
#06912:24
#07016:0000130013130000
#0701b:2300130000130000
#07012:2300001300000000
#07018:0000001300000000
#07017:0000000000000023
#0741b:0000001300000000
#07412:1300130000130000
#07417:0000130000130000
#07416:0000001300000013
#07613:00130000
#07612:00000014
#0761a:00130014
#0761b:13
#07616:14
#00115:0000000000000013
#00118:00000000000000000000000000000013
#00218:00130013
#00212:13131313
#00515:0000130000130013
#0051b:13131300
#00518:00000000000000000000000013000013
#0061b:00130013
#00612:00130013
#00615:1300001300130000
#00618:0013000013000013
#00715:1300001300120012
#0071b:00130000
#00718:0013000000000000
#00712:00130000
#00719:00001212
#01118:0013000013130000
#01115:13000000130000000013000000000000
#0111b:0000130000001313
#01112:0000001300001313
#05615:00131313
#05612:1400001300130013
#0561b:00131313
#05618:0000001300130013
#0561a:24
#05610:41
#06012:14141400
#0601a:24140014
#06016:0000001400140014
#05312:13001415
#05315:0000130000000013
#0531a:0014
#05318:0000130000000013
#0531b:13
#05319:00000015
#0031b:13131313
#00315:00130013
#00418:00130013
#00412:13131313
#00812:00130013
#0081b:00130013
#00818:1300001300130000
#00815:0013000013000013
#00919:13000013000000000000000000000013
#00914:13000013000000000000000000001300
#00912:0000001400130000
#0091a:0000001400000000
#00918:00000000000000000000000000130000
#00917:00000000000000000000001300000000
#00913:00000013
#0101b:0000130000000013
#01012:0000001300001300
#01015:1300130000130000
#01018:0013000013001300
#01010:41
#01212:0000130000000013
#0121b:0000001300001300
#01218:1300130000130000
#01215:0013000013001300
#01312:0000130000001313
#01318:13000000130000000013000000000000
#01315:0013000013130000
#0131b:0000001300001313
#01518:0000130013130000
#01515:13000000000013000013000000000000
#0151b:0013000000001313
#01512:0000130000001313
#01615:0000130013000013
#01618:1300001300001300
#0161b:0000130000130000
#01612:0013000000001300
#0171b:1300001313000013
#01715:00130000001300000000001300000013
#01718:0013130000131300
#01712:00000013000000130013000000130000
#07212:1300130000130000
#07217:0000130013130000
#0721b:0000001300000000
#07215:0000001300000000
#07216:0000000000000023
#08018:1300001313000013
#0801b:00130013
#08012:1300131300001313
#08015:0013000000130000
#08118:1300001300130000
#08115:00001300000000000013000000000000
#08112:0000131300000000
#0811b:00131300
#08416:14141414
#0841b:00130013
#08412:1313
#08419:0013000000130000
#08414:0000001300000013
#01418:0000130013000013
#01415:1300001300001300
#01412:0000130000130000
#0141b:0013000000001300
#05516:1300130013000014
#05512:0013001300000000
#0551a:00000014
#07118:00130000
#07112:23
#0751b:0013
#07512:00130013
#07516:00141414
#07519:0000001300000013
#07514:0000000000130000
#03415:00130000
#03412:0000001300000000
#03418:00000013
#0341b:0000000000000013
#03512:0000001300001300
#03519:0013
#03514:00000000000000000013000000000000
#03517:0000000000130000
#0351b:0000000000000013
#03515:00130000
#01812:2300001300001313
#01818:0013
#01815:0000000000130000
#0181b:2300001300001300
#01817:0000000000000013
#01917:0000130000000013
#01912:0000130000000013
#01910:41
#02012:13130000
#02017:13000013
#02016:0000001300000000
#0201b:0000000000130000
#02019:0000001300000000
#02014:00000013
#02117:00130000
#02116:1300001300140000
#0211b:0000001300000000
#02112:0000000000000013
#02512:1313
#02517:1300000000130000
#0251a:00000013
#0251b:0013
#02516:0000140000000013
#02513:00000013
#02416:1400000000000013
#0241b:0000130000000013
#02412:00130000
#02415:0000001300000000
#02418:0000001300000000
#02312:1300131300001300
#02318:00130013
#02317:13
#02315:0013
#0231b:0000000013130000
#02215:0013
#02212:00000013
#02217:00000013
#02216:0000000000000013
#0221b:0000000000000013
#0261b:2300001300001313
#02615:0013
#02618:0000000000130000
#02612:2300001300001300
#02616:0000000000000013
#02716:0000130000000013
#0271b:0000130000000013
#0281b:13130000
#02817:0013
#02816:13000013
#02819:0000001300000000
#02814:0013
#02916:0000130000140000
#02917:1300001300000000
#02912:0000001300000000
#0291b:0000000000000013
#05115:00131300
#05118:0000001300000000
#05117:13
#0511b:0013
#05114:0000000000000013
#05119:0000000000000013
#05112:13
#04916:0013001300000013
#04912:1300000000160000
#04918:00000016
#04917:00130000
#0491b:0000001300000000
#05016:13
#05012:0013130000000000
#05017:0000000013130000
#0501b:0000000000001313
#06212:24130013
#06218:0000130013000013
#0621b:0000000000131300
#06215:0000001300130000
#0621a:24
#06312:0013130000001300
#06318:0013000013001313
#06315:1300001300130000
#0631b:0000130000130000
#06414:18
#0641b:00130013
#06415:0000130013000013
#06412:0000000000131300
#06418:0000001300130000
#06712:0013131300001400
#06714:0000000000140000
#06718:0013000014000000
#0671b:00130000
#06715:13
#0671a:00000014
#06816:00141414
#06812:00140000
#0681a:14
#0571b:13131300
#05715:13131300
#05718:0000001300000000
#05716:0000000000000014
#05712:00000014
#06518:1300001300130000
#0651b:0013130000001300
#06515:0013000013001313
#06512:0000130000130000
#03315:0013131313131313
#03318:00000013001300130013001300130013
#0331b:23
#0461f:11
#04612:2300001300001313
#04618:0013
#04615:0000000000130000
#0461b:2300001300001300
#03215:00130000
#0321b:1300000000130000
#03212:1300001300001300
#03217:0013000000000000
#03218:0013
#03216:0000000000000013
#0311b:00130013
#0311b:00130013
#03112:00130013
#03112:00130013
#03119:0000001300130000
#03119:0000001300130000
#03116:0014
#03116:0014
#03114:0000001300130000
#03114:0000001300130000
#03110:41
#03014:00000013
#03019:00000013
#03018:0013
#06119:00000000001300000000000013000000
#06114:00130013
#06116:13
#0611b:00130000000000001300000000000000
#06115:0013000000000000
#06113:0000001300000000
#06112:0013
#0611a:00000013000000000000000000000000
#06118:00000000000000130000000000000000
#0771b:00000013
#07712:00000013
#07718:0023
#07715:0023
#07710:41
#0381b:2300001300001313
#03815:0013
#03818:0000000000130000
#03812:2300001300001300
#03912:0000000000000013
#03917:1300001300000013
#0391b:00130000
#04017:0013000000130000
#0401b:1313
#04012:0000001300000013
#04015:00130013
#04016:13
#04010:41
#04116:00130000
#04117:0013001300000000
#04112:0000001300000013
#0411b:13
#04114:0000000000130000
#04119:0000000000130000
#0451b:13000013
#04516:13
#04513:0013
#0451a:0013
#04518:00000000000000000000130000000013
#04515:00000000000000000000001300001300
#04512:00000013
#04514:00130000
#04519:00130000
#04417:0000000000000013
#04412:0000130013000013
#0441b:00131300
#04418:0000001300000000
#04415:0000001300000000
#0431b:0000130000130000
#04317:00000013
#04312:1300001300001300
#04316:00130000
#04319:0013
#04314:0013
#0421b:00000013
#04212:0013
#03712:1300001313000013
#03718:00130000001300000000001300000013
#03715:0013130000131300
#0371b:00000013000000130013000000130000
#05218:1300001313000013
#0521b:0013130000131300
#05212:00000013000000130013000000130000
#05215:00130000001300000000001300000013
#06612:00130013
#06618:0000130013000013
#0661b:0000000000131300
#06615:0000001300130000
#06614:18
#07318:00130000
#0731b:23
#08215:1300001313000013
#08212:00130013
#0821b:1300131300001313
#08218:0013000000130000
#08315:1300001300130000
#08318:00001300000000000013000000000000
#0831b:0000131300000000
#08312:00131300
#05816:0000001800000018
#05812:2400131300180013
#0581a:14
#0581b:0000000000130000
#05819:00220022
#05815:0022
#0361b:0000130000000013
#03612:0000001300001300
#0471b:0000000000000013
#04716:1300001300000013
#04712:00130000
#04816:0013000000130000
#04812:1313
#0481b:0000001300000013
#04818:00130013
#04817:13
#05916:0000001800000014
#05912:0018001313000000
#0591b:0013000000000000
#0591a:00000014
#05915:22
#05919:00220000
#08512:1300001313000000
#0851b:13000013000000130013000000000000
#08518:00130000001300000000001300000000
#08515:0013130000130000
#07652:00000054
#07653:00530000
#0765a:00630064
#0765b:43
#05655:00636363
#05652:0000006300630063
#0565b:00636363
#05658:0000006300630063
#0565a:44
#05352:33003455
#05355:0000330000000023
#0535b:43
#05358:0000430000000023
#0535a:0044
#05359:00000055
#05452:36
#05458:46
#0105b:00130000
#01052:00000013
#0115b:00130000
#01252:00130000
#0125b:00000013
#01352:00130000
#01655:00130000
#01658:00000013
#07056:0000000000630000
#0705b:0000230000630000
#07057:0000000000000043
#07058:0000005300000000
#07152:33
#0745b:0000006300000000
#07457:0000000000230000
#08052:00130013
#08152:00130000
#01458:00130000
#01455:00000013
#01558:00130000
#0605a:44640064
#06056:0000002400240024
#06052:0054
#02156:6300001300000000
#02557:13
#01852:0000000000000063
#01857:0000000000000063
#01957:00630000
#01952:00630000
#02057:63000053
#02056:0000006300000000
#02455:0000006300000000
#02458:0000006300000000
#02952:0000001300000000
#02957:53
#0265b:0000000000000053
#02656:0000000000000053
#02756:00530000
#0275b:00530000
#02857:0053
#02856:53000053
#06258:00130000
#06252:00000013
#0635b:00130000
#06352:00000013
#06856:00545454
#05755:63
#0575b:6353
#08456:00140014
#07552:00330033
#0755b:0043
#06455:00130000
#0645b:00000013
#06454:18
#06552:00130000
#0655b:00000013
#03255:00530000
#0325b:5300000000230000
#03252:0000002300006300
#03257:0023000000000000
#03258:0063
#03256:0000000000000023
#07252:0000230000530000
#07257:0000000000530000
#07255:0000006300000000
#07256:0000000000000033
#0735b:43
#0775b:00000023
#07758:0063
#07752:00000023
#07755:0053
#04152:0000001300000000
#04157:0023000000000000
#0415b:53
#0455b:13
#0405b:5353
#04057:0023000000230000
#04052:0000002300000023
#04055:00530053
#04458:0000005300000000
#04455:0000005300000000
#0445b:0023
#04452:0023
#06658:00130000
#06652:00000013
#06654:18
#06752:0000001300005400
#0675b:00130000
#06758:0014
#06754:0000000000140000
#0675a:00000014
#0825b:00130013
#0835b:00130000
#05856:0000005800000058
#05859:00220022
#05852:3400000000680000
#05855:0022
#03458:00430000
#03455:00000033
#03558:00430000
#0365b:00430000
#03652:00000033
#03957:1300001300000000
#04856:0023000000230000
#04852:6363
#0485b:0000002300000023
#04858:00630063
#0495b:0000001300000000
#04956:0023000000000000
#04952:63
#04756:1300001300000000
#05952:0068000063000000
#05955:22
#05956:0000005800000000
#05959:00220000
#05556:0063
#018320:0000000000000013
#019360:23
#018371:0000000000000013
#0193b1:23
#019321:00130000
#019361:0000002300000000
#019370:00130000
#0193b0:0000002300000000
#020370:13
#0203b0:0053230000000000
#020360:0000001300000000
#020320:0000000053230000
#020370:00000013
#0203b0:0000000000000053
#0213b0:23
#021361:13
#021321:0053230000000000
#0213b1:0000000000000013
#0223b1:23
#022350:1323000000000000
#022381:0013230000000000
#022320:0000132300000000
#0223b1:0000001323000000
#024351:0000001300000000
#024321:0000000000230000
#024380:0000001300000000
#0243b0:0000000000230000
#0263b0:0000000000000013
#027370:23
#026361:0000000000000013
#027321:23
#0273b1:00130000
#027371:0000002300000000
#027360:00130000
#027320:0000002300000000
#028360:13
#028320:0053230000000000
#028370:0013
#0283b0:0000000000532300
#028361:00000013
#028321:0000000000000053
#029321:23
#029370:13
#0293b0:0053230000000000
#029320:0000000000000013
#030320:23
#030381:1323000000000000
#030350:0013230000000000
#0303b1:0000132300000000
#030320:0000001323000000
#030320:0000000000000013
#031350:23
#0303b1:0000000000000013
#031381:23
#0323b1:13230000
#032371:0053000000000000
#032350:00132300
#032320:0000005300000000
#032381:00001323
#0323b1:0000000000530000
#032320:00000013
#032360:0000000000000053
#033320:23
#034320:1323000000000000
#034381:0013230000000000
#0343b1:0000000013230000
#034350:0000000000132300
#035320:1323000000000000
#035381:0013230000000000
#036381:1323000000000000
#036350:0013230000000000
#036350:0000000013230000
#036381:0000000000132300
#038361:0000000000000013
#039321:23
#039361:00130000
#039321:0000002300000000
#0403b1:13230000
#040371:0053000000000000
#040350:00132300
#040320:0000005300000000
#0403b1:00001323
#040371:0000000000530000
#040350:00000013
#040320:0000000000000053
#041350:23
#0413b1:13230000
#041371:0053000000000000
#0413b1:0000000000000013
#042381:23
#042350:13
#042320:0023000000000000
#042381:0013000000000000
#0423b1:00230000
#042320:00130000
#042350:0000002300000000
#0423b1:0000001300000000
#042381:0023
#042361:00000013
#042321:0000000000000023
#0423b0:0000000000000013
#043370:23
#044380:0000001300230000
#0443b0:0053
#044351:0000001300230000
#044321:0053
#046371:0000000000000013
#0473b1:23
#047371:00130000
#0473b1:0000002300000000
#048321:13230000
#048361:0053000000000000
#048380:00132300
#0483b0:0000005300000000
#048321:00001323
#048361:0000000000530000
#048380:00000013
#0483b0:0000000000000053
#049380:23
#049321:13230000
#049361:0053000000000000
#0493b1:0000000000000013
#0503b1:23
#050371:0013230000000000
#050321:0000000013230000
#050361:0000000000001323
#053321:00000015
#053351:0000000000000053
#054321:26
#053390:00000015
#053380:0000000000000053
#054380:26
#054360:00133333
#054320:0000003300330023
#0553b0:13332300
#055370:0033003300000000
#055361:0013
#055321:00000023
#056351:00133333
#056321:0000003300330033
#057351:33
#057321:0023000000000000
#0563b0:00133333
#056380:0000003300330033
#0573b0:33
#057380:0023000000000000
#0573b0:0013
#057370:00000023
#058390:00122200
#058360:0000005800000000
#058351:00001222
#058321:0000000000580000
#058390:00000012
#058360:0000000000000058
#059390:22
#059351:12220000
#059321:0058000000000000
#059390:00122200
#059360:0000005800000000
#059321:0013
#059361:00000023
#0603a1:00142400
#060361:0000005400000000
#060320:00001424
#060360:0000000000540000
#0603a1:00000014
#060361:0000000000000054
#0613a1:24
#067321:00000014
#068361:24
#068361:00140000
#0683a1:0000005424000000
#068360:0014
#068320:0000000000542400
#068361:00000014
#0683a1:0000000000000054
#0693a1:24
#0703b1:00132300
#070381:0000003300000000
#070361:0000000000130000
#070321:0000000000000053
#071321:23
#0703b0:0000000000130000
#070370:0000000000000023
#071321:00130000
#071361:0000002300000000
#0713b0:0000001300000000
#071380:0023
#071351:0013
#071321:0000000000230000
#071370:0000000000130000
#0713b0:00000023
#071321:00000013
#071361:0000000000000023
#0713b0:0000000000000013
#072370:23
#072320:00132300
#072350:0000003300000000
#072370:0000000000130000
#0723b0:0000000000000053
#0733b0:23
#072321:0000000000130000
#072361:0000000000000023
#073320:00130000
#073360:0000002300000000
#0733b1:0000001300000000
#073381:0023
#073350:0013
#073320:0000000000230000
#073371:0000000000130000
#0733b1:00000023
#073320:00000013
#073360:0000000000000023
#0733b1:0000000000000013
#074371:23
#0743b1:0000001300000023
#074371:0000000000530000
#076331:00130000
#076351:00000000005300002300000000000000
#0763a0:00130000
#076380:00000000005300002300000000000000
#076320:00000014
#076340:00000000000000000000000000540000
#077340:24
#0763a1:00000014
#076381:00000000000000000000000000540000
#077381:24
#077381:0013
#0773b1:00000053
#078381:3200535153515351535153515351535153515351535153515351535153515351
#078361:005300000000000000000000000000000000000000000000000000000000000000000000000000000000000000000000000000000000000000000000000000000000000000000000000000000000000000000000000000000000000000000000000000000000000000000000000000000000000000000000000000000000000000000000000000000000000000000000000000000000000000000000000000000000000000000000000000000000000000000000000000000000000000000000000000000000000000000000000000000000000000000000000000000000000000000000000000000000000000000000000000000000000000000000000000000000000000000000000000000000000000000000000000000000000000000000000000000000000000000000000000000000000000000000000000000000000000000000000000000000000000000000000000000000000000000000000000000000000000000000000000000000000000000000000000000000000000000000000000000000000000000000000000000000000000000000000000000000000000000000000000000000000000000000000000000000000000000000000000000000000000000000000000000000000000000000000000000000000000000000000000000000000000000000000000000000000000000000000000000000000000000000000000000000000000000000000000000000000000000000000000000000000000000000000000000000000000000000000000000000000000000000000000000000000000000000000000000000000000000000000000000000000000000000000000000000000000000000000000000000000000000000000000000000000000000000000000000000000000000000000000000000000000000000000000000000000000000000000000000000000000000000000000000000000000000000000000000000000000000000000000000000000000000000000000000000000000000000000000000000000000000000000000000000000000000000000000000000000000000000000000000000000000000000000000000000000000000000000000000000000000000000000000000000000000000000000000000000000000000000000000000000000000000000000000000000000000000000000000000000000000000000000000000000000000000000000000000000000000000000000000000000000000000000000000000000000000000000000000000000000000000000000000000000000000000000000000000000000000000000000000000000000000000000000000000000000000000000000000000000000000000000000000000000000000000000000000000000000000000000000000000000000000000000000000000000000000000000000000000000000000000000000000000000000000000000000000000000000000000000000000000000000000000000000000000000000000000000000000000000000000000000000000000000000000000000000000000000000000000000000000000000000000000000000000000000000000000000000000000000000000000000000000000000000000000000000000000000000000000000000000000000000000000000000000000000000000000000000000000000000000000000000000000000000000000000000000000000000000000000000000000000000000000000000000000000000000000000000000000000000000000000000000000000000000000000000000000000000000000000000000000000000000000000000000000000000000000000000000000000000000000000000000000000000000000000000000000000000000000000000000000000000000000000000000000000000000000000000000000000000000000000000000000000000000000000000000000000000000000000000000000000000000000000000000000000000000000000000000000000000000000000000000000000000000000000000000000000000000000000000000000000000000000000000000000000000000000000000000000000000000000000000000000000000000000000000000000000000000000000000000000000000000000000000000000000000000000000000000000000000000000000000000000000000000000000000000000000000000000000000000000000000000000000000000000000000000000000000000000000000000000000000000000000000000000000000000000000000000000000000000000000000000000000000000000000000000000000000000000000000000000000000000000000000000000000000000000000000000000000000000000000000000000000000000000000000000000000000000000000000000000000000000000000000000000000000000000000000000000000000000000000000000000000000000000000000000000000000000000000000000000000000000000000000000000000000000000000000000000000000000000000000000000000000000000000000000000000000000000000000000000000000000000000000000000000000000000000000000000000
#079381:5351535153515351535153515351535153515351535153512300000000000000
#077350:0013
#077320:00000053
#078360:32
#078370:005300000000000000000000000000000000000000000000000000000000000000000000000000000000000000000000000000000000000000000000000000000000000000000000000000000000000000000000000000000000510000000000000000000000000000000000000000000000000000000000000000000000000000000000000000000000000000000000000000000000510000000000000000000000000000000000000000000000000000000000000000000000000000000000000000000000000000000000000000000000510000000000000000000000000000000000000000000000000000000000000000000000000000000000000000000000000000000000000000000000510000000000000000000000000000000000000000000000000000000000000000000000000000000000000000000000000000000000000000000000510000000000000000000000000000000000000000000000000000000000000000000000000000000000000000000000000000000000000000000000510000000000000000000000000000000000000000000000000000000000000000000000000000000000000000000000000000000000000000000000510000000000000000000000000000000000000000000000000000000000000000000000000000000000000000000000000000000000000000000000510000000000000000000000000000000000000000000000000000000000000000000000000000000000000000000000000000000000000000000000510000000000000000000000000000000000000000000000000000000000000000000000000000000000000000000000000000000000000000000000510000000000000000000000000000000000000000000000000000000000000000000000000000000000000000000000000000000000000000000000510000000000000000000000000000000000000000000000000000000000000000000000000000000000000000000000000000000000000000000000510000000000000000000000000000000000000000000000000000000000000000000000000000000000000000000000000000000000000000000000510000000000000000000000000000000000000000000000000000000000000000000000000000000000000000000000000000000000000000000000510000000000000000000000000000000000000000000000000000000000000000000000000000000000000000000000000000000000000000000000510000000000000000000000000000000000000000000000000000000000
#078350:00535353535353535353535353535353
#079350:53535353535353535353535323000000
#079370:0051005100510051005100510051005100510051005100510000000000000000
#081320:0000000000001323
#081381:0000000000001323
#0833b1:0000000000001323
#083350:0000000000001323
#085320:0000000000001323
#0853b1:0000000000001323
