This file was generated by Ched 2.6.2.0.
#TITLE "teo H"
#ARTIST ""
#DESIGNER ""
#DIFFICULTY 0
#PLAYLEVEL
#SONGID ""
#WAVE ""
#WAVEOFFSET 0
#JACKET ""
#REQUEST "ticks_per_beat 480"
#00002: 4
#BPM01: 185
#00008: 01
#TIL00: ""
#HISPEED 00
#MEASUREHS 00
#07015:0013
#0701a:0000000000140000
#07012:00130000
#07018:2300001300000000
#07017:0000000000000024
#07613:00130000
#07612:13000014
#0761a:00130014
#0761b:13
#00118:0000000000000013
#00115:00000000000000000000000000000013
#00215:00001313
#00218:13130000
#00212:00130000
#0021b:00000013
#00615:00130013
#00612:1313
#0061b:0013000000130000
#00618:0000001300000013
#00712:13
#00718:0000001300000000
#0071b:0013000000000000
#00715:00130000
#00714:0000000013130000
#00719:0000000000001313
#05614:00141414
#05614:00141414
#05612:2400001400140014
#05612:0000001400140014
#0561a:00141414
#05618:0000001400140014
#05610:41
#06113:00000014
#06119:00000014
#06115:13
#0611b:13
#05518:0000000000000014
#05512:00000014
#05313:00140000
#05312:1414
#0531a:1414
#05319:00140000
#00318:13130000
#00312:00130000
#00315:00001313
#0031b:00000013
#00415:00131300
#00412:00000013
#00418:13000013
#0041b:00130000
#00518:13000013
#00515:00131300
#00512:00000013
#0051b:00130000
#00815:00130013
#00812:1313
#0081b:0013000000130000
#00818:0000001300000013
#00919:14
#00913:14
#00912:00000014000014000000000000000000
#0091a:00000014000014000000000000000000
#00918:00000013
#0091b:0000000000130000
#00915:0000000000000013
#0101b:0000001300000013
#01018:0013000000130000
#01012:2313
#01015:00130013
#01010:41
#0111b:0000001300000000
#01112:1313
#01118:0013000000130013
#01115:00130013
#0721b:13130000
#07218:0013
#07212:0000000000140000
#07215:1300001300000024
#0801b:0000001300000013
#08012:1313
#08018:0013000000130000
#08015:00130013
#08115:0000130013130000
#08118:00001300000000000013000000000000
#08112:13
#0811b:0000001300000000
#08113:0000000000000014
#08119:00000014
#08515:1313000000001300
#08518:0000131300130000
#0851b:0000000000000013
#08512:0013
#0321b:13
#03215:13
#03212:0013
#03218:0013
#05818:00000000001400000000000000140000
#05814:00000000001400000000000000140000
#0581a:24000000000000000014000000000000
#05812:00000000000000000014000000000000
#05819:00220022
#05815:00220022
#0581b:0022
#05813:0022
#0591a:00140000000000000000000000000000
#05919:0000131313000000
#05914:0000131313000000
#05912:00140000000000000000000014000000
#05918:0000000000000014
#0591b:22
#05913:22
#07112:24130000
#07116:00000013
#07114:0013
#07117:0000001300000000
#07119:0000000000130000
#0711b:0000000000000013
#07515:0000001300000013
#07518:00001313
#07512:0000000000130000
#0751b:00130000
#05714:0000131313000014
#0571a:00000014
#05719:0000131313000000
#01815:0013
#01818:2300000000130013
#01812:00000013
#0181b:0000001300000000
#0191b:0000000000000013
#01918:13
#01915:0000131300000000
#01910:41
#02114:0000131300000000
#02119:0000131300000000
#02119:00130000
#0211b:0000000000000013
#02112:0000000000000013
#02512:1313
#0251b:1300000000000013
#02518:00000013
#02515:0000000000130000
#02412:0000001300000013
#0241b:0000000000000013
#02418:00130000
#02312:00130013
#0231b:00000013
#02315:1313
#02318:0000001300130000
#02218:1300130000000013
#02215:0013001300000000
#0221b:0013
#02212:00000013
#01718:0013000000001300
#0171b:1313
#01715:0000001300000013
#01712:00130000
#0511a:0000131313000000
#05113:0000131313000000
#05118:0000000000000014
#05018:00130000000000000000000000000000
#05015:00000013
#05012:0013
#05019:3333000000000000
#05014:0000000000330033
#0491b:0000130000000013
#04919:0000001300000000
#04914:0000001300000000
#04912:00130000
#06215:00130013
#0621b:0000000000130000
#06212:0013
#06218:0000001300000013
#06213:24
#06219:24
#06312:13001314
#06318:0000001300000014
#0631b:0013000000130000
#06315:00130000
#06718:0000001300140000
#06714:00001414
#0671b:13
#06715:0013130000000000
#0681a:14
#06815:00000014
#06817:00140000
#06812:14
#03318:0013001300130000
#03315:23131313
#01212:0000001300000013
#01215:0013000000130000
#0121b:2313
#01218:00130013
#01312:0000001300000000
#0131b:1313
#01315:0013000000130013
#01318:00130013
#01418:0000001300000013
#01415:0013000000130000
#01412:2313
#0141b:00130013
#01518:0000001300130013
#01512:1313
#01515:0013000000001300
#0151b:00130000
#01615:0000001300000013
#01618:0013000000130000
#0161b:2313
#01612:00130013
#06918:00131313
#06915:0000001300130013
#06418:00130013
#06412:1400000000130000
#0641b:0013
#06415:0000001300000013
#0651a:00000014
#06514:0000000000000014
#0651b:1313
#06512:0013000000130000
#06518:00130000
#06515:0000001300000000
#06615:00130000
#06618:0000000000131300
#06612:0000000013000013
#0661b:0000001300000000
#0661a:14
#07412:13
#07418:13
#0741b:00130000
#07415:0000001300000000
#08212:0000001300000013
#0821b:1313
#08215:0013000000130000
#08218:00130013
#08318:0000130013130000
#08315:00001300000000000013000000000000
#0831b:13
#08312:0000001300000000
#08319:0000000000000014
#08313:00000014
#08415:1300000000130000
#08418:0013000013000000
#08412:0000131300000000
#0841b:0000000000001313
#02618:0013
#02615:0000000000130013
#0261b:00000013
#02612:2300001300000000
#02712:1300000000000013
#02718:00130000
#0271b:0000001300000000
#02919:0000131300000000
#02914:0000131300000000
#02914:00130000
#02912:0000000000000013
#0291b:0000000000000013
#0311b:00130013
#03112:00000013
#03118:1313
#03115:0000001300130000
#03110:41
#03018:0013001300000000
#03015:2300130000000013
#03012:0013
#0301b:00000013
#03818:2300000000130013
#0381b:0000001300000000
#03812:23000013
#03815:0013
#0391b:1300000000000013
#03915:0000130000000013
#03912:0000001300000000
#04112:0000131300000013
#0411b:0000131300000013
#04114:13
#04119:13
#04512:1300000000000013
#0451b:1313
#04515:00000013
#04518:0000000000130000
#04412:0000000000000013
#0441b:0000001300000013
#04415:00130000
#04312:00130013
#0431b:00000013
#04315:0013
#04318:1300001300130000
#04215:0013000013000013
#04218:2300001300000000
#04212:00130000
#0421b:00000013
#03718:00000013
#0371b:13131300
#03715:0000001300000013
#03712:0013000000000000
#04012:0013
#0401b:13
#04010:41
#04618:0013
#04615:0000000000130013
#0461b:23000013
#04612:0000001300000000
#0461f:11
#04712:1300000000000013
#04718:00130000
#0471b:0000001300000000
#0481b:00001313
#04812:13
#04815:0013
#0341b:0013
#03415:0000131300130000
#03418:1313000000001300
#03412:0000000000000013
#02818:0000001300000000
#02815:0013
#06015:00130000
#0601b:00130000
#06012:24000013
#06018:00000013
#0731b:00130000
#07317:00000013
#07319:0013
#07316:0000001300000000
#07314:0000000000130000
#07312:0000000000000013
#0731a:24
#03512:0013
#03518:0000131300130000
#03515:1313000000001300
#0351b:0000000000000013
#0361b:0013
#03615:0000131300130000
#03618:1313000000001300
#03612:0000000000000013
#05214:14
#05212:00140000
#05216:0000001400000014
#0521a:00001414
#05412:25
#05419:25
#0541f:21
#07712:0024
#0771a:0024
#07710:41
#07652:00000054
#07653:00530000
#0765a:00630064
#05654:00646464
#05654:00646464
#05652:1400006400640064
#05652:0000006400640064
#0565a:00545454
#05658:0000005400540054
#0705a:0000000000640000
#07057:0000000000000014
#07752:0054
#0775a:0064
#0325b:53
#03255:53
#03252:0063
#03258:0063
#05859:00220022
#05858:00000000005400000000000000540000
#05854:00000000006400000000000000640000
#05855:00220022
#0585a:14000000000000000054000000000000
#0585b:0022
#05852:00000000000000000064000000000000
#05853:0022
#0595a:00540000000000000000000000000000
#0595b:22
#05952:00640000000000000000000000000000
#05953:22
#02552:13
#0255b:13
#06857:00540000
#06855:00000054
#07152:14
#07252:0000000000540000
#07255:0000000000000014
#0735a:14
#06452:14
#0665a:14
#05052:0053
#05055:00000023
#05058:00230000000000000000000000000000
#0495b:0000000000000053
#04959:0000001300000000
#04954:0000001300000000
#02159:0000001300000000
#02154:0000001300000000
#02959:0000001300000000
#02954:0000001300000000
#04152:0000001300000000
#0415b:0000001300000000
#04552:13
#0455b:13
#04052:0063
#0405b:63
#0485b:00000063
#04852:53
#02452:0000005300000000
#05452:15
#05459:15
#0605b:00530000
#06055:00530000
#06052:14000053
#06058:00000053
#06155:53
#0615b:53
#0445b:0000006300000000
#0535a:1414
#05352:1414
#05353:00140000
#05359:00140000
#0203b0:13
#020380:00230000
#020320:0000001300000000
#020350:0000000000230000
#0203b0:00000013
#021380:23
#024320:0000001300000000
#024350:0000000000230000
#028320:13
#028350:00230000
#0283b0:00000013
#029380:23
#0323b0:13
#032380:00230000
#032351:13
#032321:00230000
#032321:0013
#032351:00000023
#032380:0013
#0323b0:00000023
#0403b0:13
#040380:00230000
#040320:0013
#040350:00000023
#0443b0:0000001300000000
#044380:0000000000230000
#048320:13
#048350:00230000
#0483b0:00000013
#049380:23
#0493b0:0000000000000013
#050390:3333000000000000
#050380:00530000000000000000000000000000
#0503b0:00230000
#050320:0013
#050340:0000000000330033
#050350:00000033
#051320:23
#053320:00000015
#054320:25
#053391:00000015
#054391:25
#0543a1:00143434
#054381:0000003400340024
#055321:14342400
#055341:0034003400000000
#056341:00143434
#056321:0000003400340034
#057341:24
#0563a0:00143434
#056380:0000003400340034
#0573a0:24
#058390:0000122200000000
#058380:00000000005400000000000000000000
#058351:0000122200000000
#058341:00000000005400000000000000000000
#0583b1:0000000012220000
#0583a1:00000000000000000054000000000000
#058330:0000000012220000
#058320:00000000000000000054000000000000
#058390:0000000000001222
#058380:00000000000000000000000000540000
#058351:0000000000001222
#058341:00000000000000000000000000540000
#0593b1:1222000000000000
#0593a1:00540000000000000000000000000000
#059330:1222000000000000
#059320:00540000000000000000000000000000
#0603b0:00130000
#060380:0023
#060351:00130000
#060321:0023
#060321:00000013
#061351:33
#061321:0023
#060380:00000013
#0613b0:33
#061380:0023
#068370:00140000
#0683a0:0000005424000000
#068350:00000014
#068320:0000000000000054
#069320:24
#0703a0:0000000000140000
#070370:0000000000000024
#072320:0000000000140000
#072350:0000000000000024
#074380:0000000000130023
#074321:0000000000130023
#076331:00130000
#076351:0023
#0763a0:00130000
#076380:0023
#076320:00000014
#077340:24
#0763a1:00000014
#077381:24
#077321:0014
#078351:33
#079351:0023
#0773a0:0014
#078380:33
#079380:0023
