This file was generated by Ched 2.6.3.0.
#TITLE ""
#ARTIST ""
#DESIGNER ""
#DIFFICULTY 0
#PLAYLEVEL
#SONGID ""
#WAVE ""
#WAVEOFFSET 0
#JACKET ""
#REQUEST "ticks_per_beat 480"
#00002: 4
#BPM01: 185
#00008: 01
#TIL00: ""
#HISPEED 00
#MEASUREHS 00
#07618:00000013
#0761b:0000130013000013
#07615:16130000
#07612:1300001300001300
#07617:0000001300000000
#07616:0000000000000013
#00118:0000000000000013
#00115:00000000000000000000000000000013
#00215:0000130000000013
#00212:0013001300001300
#0021b:1300130000130000
#00218:00001313
#0061b:00130013
#00612:00130013
#00615:1300001300130000
#00618:0013000013000013
#00715:1300001300130000
#0071b:00130013
#00718:0013000013000000
#00712:0000130000000013
#01116:0000000000000013
#01118:0013130013130000
#01115:13000000000016000013000000000000
#01112:00130000
#0111b:0000001300000000
#05313:13130000
#05312:0014
#0531a:13131400
#05314:00000014
#05316:0000000000000012
#05317:0012001200000000
#05318:0000000000001412
#00518:00000000000000001300000000000013
#00512:0013001300131313
#0051b:1300130000131313
#00515:00130000
#00812:00000000130000000000000000130000
#0081b:00130013
#00818:1300001300130000
#00815:0013000013000000
#00817:0000000000000013
#00916:1200000000000013
#00915:000000000012000000000000000000000000000000000000
#00913:0000001200000000
#0091b:0000000000000000000000000012000000000000000000000000000000001300
#00914:00000013
#00917:00000000000000000000001300000000
#00919:00000012000000000000000000130000
#00912:0000000000130000
#00918:0012000000000000000000000000000000000000000000000000000000000000
#01018:0013130013000000
#01012:0000130000001313
#0101b:0000001300001300
#01015:1300001600130016
#01010:41
#0141b:0013000013001300
#01415:0000001313160000
#01412:1300130000130000
#01418:0000000000000013
#01417:13
#05817:0000000000000000001500000000000000000000000000000015000000000000
#05812:2400000000000000000000000015000000000000000000000000000000150000
#05819:0000000000000000210000000000000000150000000000002100000000000000
#05814:0000000000000000000000002100000000000000001500000000000021000000
#05813:00130000
#0581b:2321
#05816:0000000000210000
#05512:0012000000000000
#0551c:0000001200000000
#05518:0012
#05516:00000014
#05515:00000000000000000000000000000014
#05519:0000000000000013
#05513:00000000000000000000000000130000
#0551a:0000000000140000
#05514:0000000000140000
#05917:00131313
#05912:00131300
#0591b:2100001300000000
#05919:0015000000000000000000000000000000000000000000000000000014000000
#05914:0000000000150000000000000000000000000000140000000000000000000000
#05916:00002100000013000000000000000013
#05913:00000000000000000000000000140000
#0591a:0000000000140000
#02114:00130000
#02119:13130000
#02112:0000001300140000
#0211b:0000001300000000
#02117:0000000000000013
#0211a:0000000000140000
#02512:13141300
#0251b:1300000000130000
#0251a:000000140000000033000000
#02516:0000000000130014
#02517:0013
#02518:000000000000000000000000000000000033000000000000
#02519:000000000000000000000000003333000000000000000000
#02513:000000000000000000000000000000000033000000000000
#02515:000033
#02514:000000000000000000000000003333000000000000000000
#02414:0000000000000013
#02419:0000000000000013
#02412:1400001300000000
#02417:00130000
#0241a:14
#02217:2300001313000000
#0221b:0013130000001300
#02212:00000013
#02216:0000000000000014
#03419:00130000
#03414:00000013
#0341b:0000001313000000
#03415:0000001600000016
#03412:0000000000000013
#0641b:0000130013000013
#06416:0000130000000013
#06418:16
#06419:0000000000130000
#06412:1600001300131300
#06415:0016
#06417:0000001300001300
#06317:0000000000131600
#06313:0000000000000016
#0631b:0013001300000000
#06316:0013001300000000
#06315:1616
#06312:0000130000131300
#06318:00130000
#06712:0000131400001400
#06715:1613160000140000
#06717:0014
#0671a:00000014
#06716:0000000000000014
#06718:0013000000000000
#0671b:13
#06817:0013
#06816:00130013
#06812:00130000
#06818:14
#06814:0000001300000013
#06819:0000000000130000
#0571b:13131300
#05717:13000000000013000000000000000014
#05716:00131314
#05712:0000001300140000
#05714:0000000000000013
#0571a:00000000000000000000000000130000
#05718:0000000000140000
#05617:00131313
#05612:2300001300130013
#0561b:00131313
#05616:0000001300130013
#0561a:24
#05610:41
#00312:0013001300001300
#0031b:1300130000130000
#00315:0000130000000013
#00318:00001313
#01916:13
#01912:00000000001300000000000013000000
#0191b:1300000000130013
#01917:0000131300001300
#01910:41
#03212:1313000000130000
#03216:1313
#03217:00130013
#0321b:0000001300000013
#05418:26120000
#0541c:0000001200000012
#05412:2600000000120000
#0541f:21
#0701b:23130000
#07017:0000001300000000
#07012:2300000013000023
#07019:00000013
#07016:0000000000000024
#0731a:00130000
#07312:23000000000000130000000000130000
#07315:00000000000013001616000013001616
#07313:00130000
#0731b:0000000000130000
#07318:00000000000000000000001300000000
#07316:24
#07212:00130000
#07216:0000001300000024
#0721b:1300000013000023
#07214:00000013
#07215:13
#07715:00130000130000001300001300001300
#07712:1313000000131300
#07718:00000013000013000013000000130000
#0771b:00000000001300130000000000000013
#07710:41
#0781b:0000131300001313
#07812:13141314
#07815:0013000000130000
#07816:0000001300000013
#07818:13000013000000001300001300000000
#0791b:0000131300001300
#07912:13140013
#07915:00001300000000000016130000001300
#07916:0000001300000000
#07918:13000013000000001300000000001300
#03816:0000131300000000
#03812:2313000000000000
#0381b:0000000013130000
#03817:0000000000001313
#04618:0013000000000013
#04615:0000001300130000
#0461f:11
#04612:0013
#0461b:23
#08218:00000013000000000000130000000000
#0821b:0000130013001313
#08215:00001300000016000000001300001600
#08212:1300131300001300
#00412:0013001300001300
#0041b:1300130000130000
#00415:0000130000000013
#00418:00001313
#01317:0000000000000013
#01315:0016131613130000
#01318:13000000000000000013000000000000
#0131b:00130000
#01312:0000001300000000
#01215:0013131613160016
#0121b:0000130000001313
#01212:0000001300001300
#01218:13
#0151b:0013000000000000
#01515:00001600000013000013000000000000
#01512:13130000
#01518:1300000013130000
#01516:0000000000000013
#01612:0013000013001300
#01617:0000001313000000
#0161b:1300130000130000
#01616:1300000000000013
#01615:0016000000160000
#0171b:13000000001300001300000013000000
#01712:13000000130000001300000000130000
#01717:00130000000000000000000000000000
#01714:00001300000000000000001300000000
#01719:00000013000000000000130000000000
#01715:00000000000013000000000000000013
#01718:00000000000000130000000000001300
#01716:00000000000000000013000000000000
#01812:1300001313000013
#0181b:2300130000131300
#01817:0000001300000013
#01816:0000000000130000
#02017:13001313
#02016:0013001300000013
#02012:13000013
#02019:00130000
#0201b:0000001300000000
#02014:0000000000130000
#02312:13130000
#0231b:13000013
#0351a:0014
#03519:0000130000001313
#03512:1300000000140000
#03515:0000001600000000
#0351b:0000001300000000
#03516:00000000000000000014000000000000
#03514:0000000000001313
#03712:13000000001300001300000013000000
#0371b:13000000130000001300000000130000
#03716:00130000000000000000000000000000
#03719:00001300000000000000001300000000
#03714:00000013000000000000130000000000
#03718:00000000000013000000000000000013
#03715:00000000000000130000000000001300
#03717:00000000000000000013000000000000
#02919:13130000
#02914:00130000
#0291b:0000001300000000
#02912:0000001300140000
#02916:0000000000000013
#0291a:0000000000140000
#03016:2300001313000014
#03012:0013130000001300
#0301b:00000013
#02717:13
#0271b:00000000001300000000000013000000
#02712:1300000000130013
#02716:0000131300001300
#0261b:1300001313000013
#02612:2300130000131300
#02616:0000001300000013
#02617:0000000000130000
#02816:1300000000000013
#02817:0013001313001300
#0281b:13
#02815:00130000
#02812:0000001313001300
#0311b:13130000
#03112:13000013
#03110:41
#03615:0000130000000016
#0361b:1300001300000000
#03618:00000013
#03612:0000000013000013
#03616:0000001500000000
#03912:13
#03915:0013000000000000
#03914:00130000
#03916:0000001300000000
#0391b:0013
#03918:0000000000130000
#03919:00000013
#03917:0000000000000013
#04012:1313000000000000
#04016:0000131300000000
#0401b:0000000013130000
#04017:0000000000001313
#04010:41
#0411b:1300001300001300
#04117:13
#04115:0000000000130016
#04118:00000000000000000000001300000000
#04112:00000013
#0451b:1313
#04512:1300000000130000
#04514:000000000000130000000000003333000000000000000000
#04519:000000000000130000000000003333000000000000000000
#04516:0000000013000014
#04517:0000000000130000
#04515:000000000000000000000000000000000033000000000000
#04513:000033
#0451a:000000000000000000000000000000000033000000000000
#04518:000033
#04212:0013000000000013
#04215:2300131300000000
#0421b:0000001300130000
#04218:0000000013001313
#04315:13
#04312:0013000000000013
#04314:00130000
#0431b:0000001300130000
#04316:0000001300000000
#04318:0013
#04319:00000013
#04317:0000000000000013
#04415:1300131300000000
#04412:0013000000000013
#0441b:0000001300130000
#04418:0000000013001313
#0471b:13
#04718:0013000000000013
#04715:0000001300130000
#04712:0013
#0481b:13
#04818:0013000000000013
#04815:0000001300130000
#04812:0013
#04912:1300001300000000
#04916:1300000000000013
#04918:0000000000141400
#04914:00000000000000000000001400000000
#0491b:0000000000000013
#05115:00131300
#05118:0000001300000000
#05114:0000000000000013
#05119:0000000000000013
#05117:13
#05012:1313000013000000
#05016:00130000130000000000000000000000
#05017:00001313
#0501a:0000000000130013
#0501b:00000013
#06112:00001313
#0611b:00000013
#06513:00000016
#06517:0000001300000016
#06514:0013000000000000
#0651b:0013130013001300
#06515:1616
#06512:1300001300130000
#06516:00130000
#06519:0000000000130000
#06612:1600130013000013
#06615:0000160016131600
#0661b:0000001300001300
#06618:1600000000130000
#06616:0000001400000014
#07114:00130000
#07118:00000000000000130000000013000013
#07115:00000000000000001300001300000000
#07119:00130000
#0711b:2300001313000013
#07112:0000000000131300
#07116:24
#07417:0000131300000000
#07412:0000131300000000
#07416:0000000000130000
#0741b:1300000000130000
#07515:00161616
#07513:0000001300000013
#07512:0013
#07516:0000000000130000
#0751b:00130013
#07517:0000001300000013
#0751a:0000000000130000
#08518:13000013000000130000130000130000
#08512:0000131300000013
#0851b:00130000000000000013001300000000
#08515:00001300001300001300000013000000
#08318:00000013000000001600000000001300
#0831b:00130013
#08315:00001300000016000016000000001300
#08312:1300131300161300
#08415:00000013000016001300000013001600
#08412:0000130000130013
#0841b:0013001300001300
#08418:13000000130000000000001300000000
#05216:14000000000000140000000000001414
#05219:00130000001300001300000013000000
#05214:00001300000013000013000000130000
#0521b:00000013000000000000130000000000
#05212:00000000130000000000001300000000
#06212:0000130000130013
#06218:00130000
#06217:0000000000130013
#06215:00001613
#06216:0000001300000000
#0621b:0000001300001300
#0601b:00130000
#06012:24
#0601a:24
#08012:0000131300001313
#0801a:00140014
#08018:0013000000130000
#08017:0000001300000013
#0801b:1313
#08015:13000013000000001300001300000000
#08112:0000131300001300
#0811b:13000013
#0811a:00140000
#08118:0013000000130013
#08117:0000001300000000
#08115:13000013000000001316000000001300
#06912:00131313
#0691b:00131313
#06918:00001300001300130000130000130013
#06915:00000013000013000013001300001300
#06917:23
#0331b:23
#07658:00000063
#0765b:0000000000000023
#07655:00530000
#07652:3300002300000000
#05352:0034
#0535a:4344
#05354:00000054
#05356:0000000000000022
#05358:0000000000006422
#05353:00330000
#05452:36
#05458:46
#01058:00130000
#01052:00000013
#01158:00130000
#05859:0000000000000000210000000000000000550000000000002100000000000000
#05857:0000000000000000005500000000000000000000000000000055000000000000
#05852:3400000000000000000000000065000000000000000000000000000000650000
#05854:0000000000000000000000002100000000000000006500000000000021000000
#0585b:4321
#05856:0000000000210000
#02552:1363
#02557:0063
#0255b:0000000000230000
#02556:0000000000230000
#03459:00430000
#03454:00000033
#06353:0000000000000036
#06357:00000046
#06358:00130000
#06458:46
#06456:00130000
#06457:00000013
#06452:36
#06752:0000003400006400
#06755:0000160000340000
#06757:0044
#0675a:00000044
#06756:0000000000000024
#06856:00530053
#06857:0053
#06852:34
#05657:00535353
#05652:3300005300530053
#0565b:00535353
#05656:0000005300530053
#0565a:44
#01956:53
#01952:00000000006300000000000000000000
#02452:0000006300000000
#02457:00630000
#03256:5353
#03257:00530053
#07052:3300000000000033
#0705b:43
#0715b:43
#0725b:0000000000000043
#07352:33
#05959:0055000000000000000000000000000000000000000000000000000000000000
#05954:0000000000650000000000000000000000000000000000000000000000000000
#0595b:21
#05956:0021000000000000
#01255:00130000
#0125b:00000013
#01355:00130000
#01452:00330000
#0145b:00000043
#01552:00330000
#0165b:00430000
#01652:00000033
#01852:53
#02052:53000053
#02056:0023000000000023
#02057:0023
#0205b:0000006300000000
#0215b:0000001300000000
#02952:0000001300000000
#02757:63
#0275b:00000000005300000000000000000000
#0265b:63
#02857:0023000000000000
#0285b:63
#02856:0000000000000023
#02852:00000053
#03559:00430000
#03655:00330000
#03658:00000043
#04157:53
#0415b:5300004300000000
#04152:0000004300000000
#04156:00430000
#0455b:4353
#04552:3300000000230000
#04556:0053
#04557:0000000000230000
#04952:6300003300000000
#04956:63
#0495b:0000003300000063
#04957:00330000
#05158:0000005300000000
#05155:0053
#05052:0063
#05057:00000023
#05056:00230000000000000000000000000000
#05757:53
#0575b:53
#06152:0043000000005300
#0615b:00330053
#06158:4343
#06155:0000003300000000
#06052:3400000000430000
#0605a:44
#06055:0000003300000033
#06058:0043
#0605b:00000033
#06553:00000036
#06557:0000000000000046
#06556:00130000
#06652:36
#06655:00160016
#06658:46
#07452:0000005300000000
#07456:0000000000230000
#0745b:0000000000230000
#07552:0033
#0755b:00430043
#07852:00340034
#07952:00340000
#0825b:00430043
#08252:00330033
#0835b:00430000
#08352:00330000
#08452:00330000
#0845b:00000043
#08458:00430000
#08455:00000033
#00758:0013
#00755:0000000000130000
#0075b:00000013
#00752:0000000000000013
#0235b:00000013
#03152:00000013
#06258:00130000
#06255:00000013
#0805a:00440044
#0815a:00440000
#0385b:00130000
#03852:00000013
#03952:00000013
#0395b:00130000
#0405b:00130000
#04052:00000013
#04354:00130000
#04359:00000013
#04255:00130000
#04258:00000013
#04455:00130000
#04458:00000013
#04652:00330000
#0465b:00000043
#04752:00330000
#0475b:00000043
#04852:00330000
#0485b:00000043
#011320:0000000000132300
#0113b1:0000000000001323
#0133b1:0000000000132300
#013320:0000000000001323
#014380:00130000
#0143b0:0000002300000000
#014350:00000013
#014320:0000000000000023
#015380:00130000
#0153b0:0000002300000000
#015320:0000000000132300
#0153b1:0000000000001323
#016361:00130000
#016321:0000002300000000
#016371:00000013
#0163b1:0000000000000023
#018321:13
#018371:00230000
#019361:1300000000230000
#019321:00000000005300000000000000000000
#020321:13230000
#020361:0053000000000000
#0203b1:0000001300230000
#020371:0053
#020321:00000013
#020361:0000000000000053
#021321:23
#021321:0000000000000013
#022321:23
#022361:0013230000000000
#022321:0000001323000000
#023371:0000132300000000
#023320:0000001323000000
#0233b1:0000000013230000
#023360:0000000000132300
#024370:00130000
#0243b0:0000000053230000
#024321:0000001300000000
#024361:0000000053230000
#025371:00001323
#025391:000000000000000000000000003333000000000000000000
#0253b1:0000000000330000
#0253a1:000033
#025381:000000000000000000000000000000000033000000000000
#025320:00001323
#025340:000000000000000000000000003333000000000000000000
#025360:0000000000330000
#025350:000033
#025330:000000000000000000000000000000000033000000000000
#0263b0:13
#026360:00230000
#027370:1300000000230000
#0273b0:00000000005300000000000000000000
#0283b0:13230000
#028370:0053000000000000
#028320:00000013
#028360:0000000000000053
#029320:23
#0293b0:0000000000000013
#0303b0:23
#030370:0013230000000000
#0303b0:0000001323000000
#031360:0000132300000000
#0313b1:0000001323000000
#031320:0000000013230000
#031371:0000000000132300
#032361:13
#0323b1:00230000
#032370:00130000
#032320:0023
#032361:0013
#0323b1:00000023
#032370:00000013
#033320:23
#033380:00001323000000000000000000000000
#033321:00000013230000000000000000000000
#0333b0:00000000132300000000000000000000
#033351:00000000001323000000000000000000
#033380:00000000000013230000000000000000
#033351:00000000000000132300000000000000
#0333b0:00000000000000001323000000000000
#033321:00000000000000000013230000000000
#033380:00000000000000000000132300000000
#033351:00000000000000000000001323000000
#033380:00000000000000000000000013230000
#033321:00000000000000000000000000132300
#0333b0:00000000000000000000000000001323
#033351:00000000000000000000000000000013
#034351:23
#0343b0:1323000000000000
#034361:0013230000000000
#034321:0000000013230000
#034370:0000000000132300
#0353b0:1323000000000000
#035361:0013230000000000
#036351:13
#036321:0023000000000000
#036380:0013230000000000
#036380:0013
#0363b0:0000000000230000
#036351:0000000000132300
#0383b1:13230000
#038321:00001323
#0393b1:13230000
#039321:00001323
#0403b1:13230000
#040321:00001323
#0413b1:13
#041361:00230000
#041370:13
#041320:0000332300000000
#042380:13230000
#042350:00001323
#043380:13230000
#043350:00001323
#044380:13230000
#044350:00001323
#045360:00001323
#045340:000000000000000000000000003333000000000000000000
#045320:0000000000330000
#045330:000033
#045350:000000000000000000000000000000000033000000000000
#0453b1:00001323
#045391:000000000000000000000000003333000000000000000000
#045371:0000000000330000
#045381:000033
#0453a1:000000000000000000000000000000000033000000000000
#046321:13230000
#046380:0000132300000000
#0463b0:00001323
#046351:0000000000001323
#047321:13230000
#0473b0:00130000
#047380:0000002300000000
#0473b0:00001323
#047321:00000013
#047351:0000000000000023
#048321:13230000
#0483b0:0000132300000000
#0483b0:00001323
#048321:0000000000001323
#049321:13
#049371:00230000
#049360:13
#0493b0:0000332300000000
#0493b0:0000000000000013
#050360:00530000000000000000000000000000
#0503b0:00230000
#050320:0013
#050370:00000053
#051320:23
#051380:0000001300000000
#0513b0:00000023
#051351:0013
#051321:00000023
#053341:00000014
#053361:0000000000000052
#054321:26
#053380:0000000000001452
#054380:26
#054360:00122200
#054320:0000003200000000
#054381:00001222
#0543c1:0000000000320000
#054360:00000012
#054320:0000000000000032
#055360:22
#055381:12220000
#0553c1:0032000000000000
#055360:00122200
#055320:0000003200000000
#056370:00133333
#056320:0000003300330033
#057370:33
#057320:0023000000000000
#0563b1:00133333
#056361:0000003300330033
#0573b1:33
#057361:0023000000000000
#058391:00000000112100000000000000000000
#058371:0000000000000000005500000000000000000000000000000000000000000000
#058341:00000000000011210000000000000000
#058321:0000000000000000000000000055000000000000000000000000000000000000
#0583b1:00000000000000001121000000000000
#058391:0000000000000000000000000000000000550000000000000000000000000000
#058361:00000000000000000000112100000000
#058341:0000000000000000000000000000000000000000005500000000000000000000
#058391:00000000000000000000000011210000
#058371:0000000000000000000000000000000000000000000000000055000000000000
#058341:00000000000000000000000000001121
#058321:0000000000000000000000000000000000000000000000000000000000550000
#0593b1:11210000000000000000000000000000
#059391:0055000000000000000000000000000000000000000000000000000000000000
#059361:00001121000000000000000000000000
#059341:0000000000550000000000000000000000000000000000000000000000000000
#060351:0000132300000000
#060380:0000001323000000
#060321:0000000013230000
#0603b0:0000000000132300
#060351:0000000000001323
#060380:0000000000000013
#061380:23
#061321:1323000000000000
#0613b0:0013230000000000
#061351:0000132300000000
#061380:0000001323000000
#061320:00000013
#062350:23
#0613b1:00000013
#062381:23
#067321:00000014
#067361:0000000000000054
#068321:24
#068361:00130000
#0683b1:0000005323000000
#068370:0013
#068320:0000000000532300
#068361:00000013
#0683b1:0000000000000053
#0693b1:23
#070361:00130000
#070321:0000002300000000
#070371:0013
#0703b1:0000000000230000
#070360:0000000000130000
#070320:0000000000005323
#072370:00130000
#0723b0:0000002300000000
#072360:0013
#072320:0000000000230000
#072371:0000000000130000
#0723b1:0000000000005323
#074321:0000001300000023
#074361:0000000000530000
#0743b0:0000000000130000
#074370:0000000000000023
#076350:00130000
#076320:0000005300000000
#076360:0023
#076380:00000013
#0763b0:0000000000000053
#077370:23
#082380:1323000000000000
#082350:0000000013230000
#083380:1323000000000000
#084320:1323000000000000
#0843b0:0000000013230000
