This file was generated by Ched 2.6.2.0.
#TITLE "teo"
#ARTIST ""
#DESIGNER ""
#DIFFICULTY 0
#PLAYLEVEL
#SONGID ""
#WAVE ""
#WAVEOFFSET 0
#JACKET ""
#REQUEST "ticks_per_beat 480"
#00002: 4
#BPM01: 185
#00008: 01
#TIL00: ""
#HISPEED 00
#MEASUREHS 00
#00219:14141414
#00313:14141414
#00419:14140000
#00413:00001414
#00519:14140000
#00513:00001414
#0061a:14140000
#00815:16160000
#0101a:14140000
#01014:00001414
#01010:41
#0111a:14140000
#01114:0014
#01712:1415
#01719:0015
#0181a:14140000
#01814:00001414
#02218:14140000
#02212:00001414
#05312:15151500
#05319:15151500
#0261a:14
#02618:0014
#02614:00140000
#02612:00000014
#03018:14
#03013:00000014
#03019:0014
#03012:00140000
#05612:16
#05614:0000140014000014
#05618:0000001400001400
#05610:41
#06214:2400001400140000
#0621a:24141414
#06212:0000000000000014
#07012:25140000
#0701a:00000014
#07019:25
#07118:0000001400000014
#07112:00140014
#07114:0014
#0711a:0000000000140000
#07713:0014
#07712:16000014
#07719:0014
#0771a:00000014
#07710:41
#0801a:1414
#08014:00140014
#00712:14140000
#01612:1414
#01618:00140014
#0341a:14
#03414:00140000
#03419:0014
#03413:00000014
#03518:14001414
#03512:00140000
#03514:0000000000140000
#05218:1414
#05214:00140014
#05518:0000140014000016
#05514:1400001400000000
#05512:00000016
#07214:14
#0721a:00140000
#07212:00000014
#0811a:1414
#08112:00140000
#0841a:14140000
#08414:14140000
#08418:00001414
#08412:00001414
#01212:14140000
#01218:00001414
#01312:14140000
#01318:0014
#0141a:1414
#01414:00140014
#0151a:1414
#01512:00140000
#03612:14
#03618:00140000
#03613:0014
#03619:00000014
#03714:14001414
#0371a:00140000
#03718:0000000000140000
#05018:1414
#05014:00140014
#05118:1400001500000000
#05113:00151500
#05418:0000140014000014
#05414:0000001400001400
#05412:26
#0541f:21
#06318:1400140016000016
#06312:0014001400001600
#06412:16141414
#06418:0000001400140000
#0641a:0000000000000014
#06514:14140000
#0651a:0014001400000000
#06512:0000000016000016
#06518:00000016
#06618:16
#06614:0000001400140000
#0661a:00141414
#06612:0000000000000014
#06718:14141616
#06712:0014001400160000
#06812:16000016
#06818:00160000
#0691a:00140000
#06914:00140000
#06918:00000014
#06912:00000014
#06112:00000014
#06118:00000014
#07314:0000001400000014
#0731a:00140014
#07318:0014
#07312:0000000000140000
#07418:14
#07412:00140000
#0741a:00000014
#0751a:0000001400000014
#07512:00140014
#07514:0014
#07518:0000000000140000
#07614:14
#07618:00161600
#07612:00000016
#0461f:11
#02012:14140000
#02018:00001414
#02414:14140000
#0241a:00001414
#03214:14
#03219:00000014
#03213:0014
#0321a:00140000
#08212:1414
#08218:00140014
#08312:1414
#0831a:00140000
#05818:1600140014000014
#05814:0000001400001400
#05714:00141400
#05718:1400001400001600
#05712:0000000000000016
#06012:16
#05918:0000140014000016
#05914:1400001400000000
#05912:00000016
#01918:1414
#01912:00140000
#01910:41
#02114:1414
#0211a:00140000
#02318:1414
#02312:00140000
#02514:1414
#0251a:00140000
#02718:14
#02714:00140000
#0271a:0014
#02812:14
#02814:0014
#02818:00140000
#0281a:00000014
#02914:14
#02918:00140000
#02912:0014
#0481a:14
#04818:0014
#04912:14
#04914:0014
#0381a:14
#03812:00140000
#03818:0014
#03814:00000014
#03918:14
#03912:0014
#0391a:0014
#03914:00140000
#04012:14
#0401a:00140000
#04014:0014
#04018:00000014
#04010:41
#04114:14
#0411a:0014
#04112:0014
#04118:00140000
#0421a:14
#04218:00140000
#04212:0014
#04214:00000014
#0431a:1414
#04318:00140000
#04312:0014
#04412:14
#04414:00140000
#0441a:0014
#04418:00000014
#04512:1414
#04514:00140000
#0451a:0014
#03110:41
#07753:0054
#07752:16000024
#07759:0064
#0775a:00000024
#07052:00540000
#0705a:00000064
#05452:16
#06858:00660000
#06852:00000066
#0695a:00640000
#06954:00640000
#0725a:00640000
#07252:00000054
#07452:00540000
#0745a:00000064
#0815a:0054
#08352:0064
#05352:0015
#05359:0015
#07658:0016
#0485a:64
#04858:0024
#04952:54
#04954:0024
#0063a0:00001424
#007320:00001424
#008350:00001626
#009330:14000034000024000000000000000000
#009391:14000034000024000000000000000000
#0313a1:14
#031381:0024
#033321:14
#033341:0024
#0463a1:14000024
#046381:00343400
#047321:14000024
#047341:00343400
#0483a1:14000024
#048381:00343400
#049321:14000024
#049341:00343400
#060381:00160000
#060351:0026
#060321:00000016
#061351:26
#0613a1:00140000
#061381:0024
#061340:00140000
#061320:0024
#068380:00160000
#068350:0026
#068320:00000016
#069350:26
#0693a0:00140000
#069380:0024
#069341:00140000
#069321:0024
#070321:00140000
#070341:0024
#0703a1:00000014
#071381:24
#0723a1:00140000
#072381:0024
#072321:00000014
#073341:24
#074321:00140000
#074341:0024
#0743a1:00000014
#075381:24
#077331:0014
#077321:00000054
#078341:34
#079341:0024
#077390:0014
#0773a0:00000054
#078380:34
#079380:0024
#0813a0:0014
#081380:00000024
#083320:0014
#083340:00000024
#085340:14343434
#085330:0034003400340024
#0853a1:14343434
#085391:0034003400340024
