This file was generated by Ched 2.6.2.0.
#TITLE "hibana E"
#ARTIST ""
#DESIGNER ""
#DIFFICULTY 0
#PLAYLEVEL
#SONGID ""
#WAVE ""
#WAVEOFFSET 0
#JACKET ""
#REQUEST "ticks_per_beat 480"
#00002: 4
#BPM01: 200
#00008: 01
#TIL00: ""
#HISPEED 00
#MEASUREHS 00
#00219:14
#00313:14
#00419:14
#00513:14
#00619:14
#00610:41
#00719:14
#00813:14
#00913:14
#0141a:14
#0151a:14
#01618:14
#01718:14
#01814:14
#01810:41
#01914:14
#02012:14
#02112:14
#02218:14
#02318:14
#02414:14
#02514:14
#0341a:14
#03512:14
#03818:2616
#03810:41
#03912:1616
#04619:14
#0461f:11
#04713:14
#06214:14
#0621a:14
#06318:14
#06312:14
#06618:14
#06612:14
#06714:14
#0671a:14
#0701a:1414
#07010:41
#07114:1414
#07218:1414
#07312:1414
#0741a:14
#07414:0014
#07518:14
#07512:0014
#00019:14
#00113:14
#04212:2616
#04318:1616
#05013:14
#05119:14
#05418:2616
#0541f:21
#05512:1616
#05510:0041
#05812:2616
#05918:1616
#0261a:14
#0271a:14
#02812:14
#02912:14
#03019:14
#03010:41
#03113:14
#03219:14
#03313:14
#010390:14
#011390:24
#012330:14
#013330:24
#036380:14000024
#040380:16
#041380:26
#044320:16
#045320:26
#048390:14
#049390:0024
#052330:14
#053330:0024
#056380:16
#057380:26
#060320:16
#061320:26
#064390:14
#065390:0024
#068330:14
#069330:0024
#0763a0:14
#0773a0:0024
