This file was generated by Ched 2.6.2.0.
#TITLE "hibana EX"
#ARTIST ""
#DESIGNER ""
#DIFFICULTY 0
#PLAYLEVEL
#SONGID ""
#WAVE ""
#WAVEOFFSET 0
#JACKET ""
#REQUEST "ticks_per_beat 480"
#00002: 4
#BPM01: 200
#00008: 01
#TIL00: ""
#HISPEED 00
#MEASUREHS 00
#00019:141414
#00013:001400140014
#00119:141400
#00113:001400140000
#0011b:00000013
#00218:00130000001300000000001300000013
#00215:0013002300130013
#0021b:00000013000000130013000000130000
#00212:23131323
#0031b:00130000001300000000001300000013
#00312:0013002300130013
#00318:00000013000000130013000000130000
#00315:23131323
#00415:13001313
#00418:0013000000130013
#0041b:00130000
#00412:0000001300000000
#0051b:1300001300002300
#00515:0013000000130000
#00518:00131300
#00512:1300001300002300
#03012:23130000
#03016:0000000013130000
#03013:0000000000000012
#03017:13
#03019:0000000000000012
#03010:41
#0311c:00120012
#03116:0000000000121200
#03119:1212
#03112:0000001200000000
#03115:0012000000000000
#03416:0000001200000000
#03419:0000000000120000
#03415:0000000000000012
#03418:0012000000000000
#03414:00120000
#03413:00000012
#0341a:22
#0341b:0022
#03616:1400001400000000
#03614:0000130000130000
#03619:0000130000130000
#03612:00000024
#0361a:00000024
#0371b:00001313
#03712:00000000000000000013000000130000
#03718:0000000000130013
#03715:00000000000000000000001300000013
#03815:0000001400000012
#03813:00000012
#0381b:0000000013000012
#03819:00000012
#0381a:14
#03817:0014000000000000
#03812:23140000
#03810:41
#0401b:0013000000130023
#04012:00131300
#04015:2313000000001323
#04018:0000001313000000
#04115:0012001200000013
#04119:00120000
#0411b:00000000000000001300000000130000
#04112:00001313
#04118:00000000000000000000000000000013
#04818:00130000
#04816:13
#04815:0013
#04812:0000001300001313
#04817:0000000000000013
#0481b:1300001300000000
#0471b:0000000000001313
#04712:1414
#0471a:00140000
#05319:0000000000000013
#05315:000000000000000000000000000033000000000000000000000000000000000000000000000000130000000000000000
#05316:00000000000000000000000000000013
#05314:120000000000000033333300000000000000000000000000
#05318:0012000000001300
#0531c:00120000
#05312:0023
#05313:000000000000000000000033000000000000000000000000
#07419:0013000000130000
#07414:0000001300000013
#07416:00130013
#07417:1313
#0741b:00130013
#07412:2323
#07512:1313
#0751b:00130013
#07519:0013000000130000
#07514:0000001300000000
#07516:24242424
#02212:13000013
#02217:2300000000000013
#0221b:0000001300000000
#02215:0013
#02218:0000000000130000
#0321b:2300130000000012
#03217:0000000013130000
#03216:13
#03212:00000012
#03215:0000000000000012
#02319:0013000000000000
#0231b:0000001300000000
#0231a:00000012
#02318:0000000000000012
#0231c:0000000000120000
#02316:00130000
#02314:13
#02416:0000000000000013
#0241b:13000013
#02412:0000001300000000
#02418:0013
#02415:0000000000130000
#02514:0013000000001200
#02512:0000001300120000
#02519:13
#02517:00130000
#02516:0000000000000012
#02612:13000013
#0261b:0000001300000000
#02615:0013
#02618:0000000000130000
#02616:0000000000000014
#0271b:0000130000000013
#02712:1300001300000013
#02716:0014001400000000
#00615:0013001300000000
#00618:0000130013000013
#00612:2300000000001313
#0061b:0000000000130000
#00610:41
#00718:00001313
#00715:0000000000130000
#00716:0012001200000000
#0071c:12120000
#00712:00000013
#0081b:1300000000001313
#00818:0013001300000000
#00815:0000130013000013
#00812:0000000000130000
#00918:00001200000012000000130000130013
#00912:12120000
#00915:0000000013001313
#01015:0013000013000000
#01018:0000130000130000
#01012:1300001300001313
#0101b:2300001300001313
#0111a:0000000000131300
#01118:0012001200000000
#01116:12120000
#01113:0000000013130000
#01218:0013001300130013
#01215:13131313
#01212:0000002300000000
#0121b:23000023
#01312:1312
#01315:0013130000000000
#01318:00000013000000000000000000000000
#0131a:0000001200000000
#0131c:0012
#0131b:13
#01314:0000001200001313
#01319:00000013
#01412:2300001200000000
#01419:0012
#01415:0000000000120000
#0141c:00000012
#01416:0000000000000012
#0141b:23
#01514:0012000000000000
#01512:0000001200000000
#01515:0000000000121200
#01519:0000000000000012
#03919:0000001300000000
#03912:0013130000001300
#03917:00130013
#0391b:0013
#03916:0013
#01619:1200000000120000
#0161c:0000001200000000
#01615:0012
#01612:00000012
#01618:0000000000000012
#0171a:0012000000000000
#0171c:0000001200000000
#01714:00000013
#01719:0000000000001313
#01819:0000001212000000
#01815:0000000000121200
#01818:0000000000000012
#01812:1300000000000012
#0181b:13
#01810:41
#01918:0000001200000000
#01916:0012000000000000
#0191c:0012000000000000
#01912:0000001200000013
#0191b:0000000000000013
#04918:0013001300000000
#04915:00130000
#0491b:00001313
#04912:0013
#04916:00000013
#04219:0000000000000012
#0421b:23000012
#04213:0000000000000012
#04215:0014000000001200
#04212:1413
#0421a:00140000
#04217:0000001400000000
#04519:0012001200000000
#04515:00120013
#04512:0013
#0451b:00001313
#04314:0000001300000000
#0431b:0013130000001300
#04316:00130013
#04312:0013
#04317:0013
#05217:00130013
#05219:0000001300000000
#0521b:0013
#05212:00000013
#05216:0013
#0521a:0000000000000012
#05116:1400140014000013
#05112:00000013
#0511b:0000000000000013
#05416:0014001400000012
#05412:24142412
#0541c:0000000000000012
#05418:00000012
#0541a:14241400
#0541f:21
#0571b:13130000
#05716:0014
#05717:00000000000000000000000000000013
#05714:00000000001300000000000000001300
#05718:00000000000000000000000000130000
#05715:0013000000001300
#05719:0000001300000000
#05712:00000000000000130000000000000000
#05518:0000001300001300
#05515:00131300
#05512:0013000000001300
#0551b:0000130000130000
#05510:0041
#05818:0000000000000012
#0581c:00000012
#05812:1400240014000012
#05816:0014001400001200
#0581a:24142400
#06112:13130000
#06116:0014
#06114:0000001300000000
#0611b:00000000000000130000000013000000
#06119:00000000001300000000000000000000
#06118:0013000000000000
#0701b:1300000013130000
#07015:2313000013130013
#07012:00130000
#07018:0000131300001300
#07010:41
#05915:0000001300001300
#05918:00131300
#0591b:0013000000001300
#05912:0000130000130000
#0731b:0000130000130013
#07315:00000000000013000013001300000000
#07318:00001313
#07312:0013000000001300
#06415:00120000
#06417:13
#06419:0012
#0641b:0000001200001313
#06416:0000000000001313
#06412:13
#06413:0000001200000000
#06312:0000000000001313
#06317:0000000000000013
#06519:0012
#06516:0012000000120000
#06512:00120013
#0651c:0000001200000000
#06816:00130013
#06814:0000001300000012
#06812:0013
#0681b:00000013
#06817:0013
#07112:1300000013130013
#07118:2313000013130013
#0711b:00130000
#07115:0000131300001300
#06913:00000000000012000000000000000012
#06919:0000000000000012
#06914:00000000000000000000000000120000
#0691a:00000012
#06915:00000000000000000000001200000000
#0691b:1200000000120000
#06916:00001200000000000012000000000000
#0691c:0012
#06918:00120000
#0721b:1313
#07215:23131313
#07212:0000001300000000
#07218:00000000001300130000000000001300
#04612:1313
#0461a:00000014
#0461b:00130000
#0461f:11
#05017:1313
#05016:00130014
#05616:23001212
#05614:0012000000120000
#0561a:00120000
#05618:0000001200000012
#05612:0000000000000012
#0561c:0012
#0561b:23
#06018:00001212
#0601a:0012000000120000
#06014:00120000
#06016:0000001200000012
#0601c:0000000000000012
#06012:2312
#06017:23
#0671b:00000013
#06717:0000000000000013
#06712:0000000000000013
#02012:1300000013000013
#0201b:13
#02016:0012001200000000
#02019:00120000
#0211b:1313
#02118:0012001200000000
#02115:00120013
#02112:13
#03312:00120012
#03318:0000000000121200
#03315:1212
#0331c:0000001200000000
#03319:0012000000000000
#03518:2313000000000000
#03515:0000131300000000
#03517:0000000023130000
#03516:0000000000001313
#0281b:1300000013000013
#02812:13
#02819:0012000000000000
#02817:00120000
#02815:0000001200000000
#02912:1313
#02915:0012000000000000
#02917:00120000
#02919:0000001200000000
#0291b:13
#02918:00000013
#04412:0013000000130023
#0441b:00131300
#04418:2313000000001323
#04415:0000001313000000
#0055b:13000013
#00552:0000001300000000
#03656:1400001400000000
#03652:00000034
#0365a:00000044
#07552:1313
#0755b:00130013
#03057:63
#03256:53
#02257:0000000000000013
#02252:53
#02359:0013000000000000
#0235b:0000001300000000
#02456:0000000000000013
#0245b:63
#02554:0013000000000000
#02552:0000001300000000
#02652:53
#02656:0000000000000044
#0015b:00000013
#04152:0013
#0415b:0013
#04552:0013
#0455b:00001363
#03857:0024000000000000
#0385a:64
#03852:00540000
#03855:0000002400000000
#04252:54
#04255:0024000000000000
#0425a:00640000
#04257:0000002400000000
#05156:6400540064000063
#0705b:1313
#07152:1313
#04652:5353
#0465a:00000064
#0465b:00630000
#04752:5454
#0475a:00640000
#04956:00000053
#05057:6363
#05056:00530054
#06757:0000000000000063
#06758:1414
#06752:00140014
#0545a:64440000
#05456:0024002400000000
#05452:00543400
#05852:54340000
#05856:0024002400000000
#0585a:00644400
#06354:1414
#0635a:00140014
#06255:1313
#0625b:00130013
#06652:00130013
#06658:1313
#02756:0034004400000000
#01255:13000013
#01258:0000001300000000
#0205b:13
#02052:0013
#02152:13
#0215b:0013
#02852:13
#0285b:0013
#0295b:13
#02952:0013
#0615b:00000013
#06552:00000013
#07255:0033
#07358:00000043
#05352:0033
#0143c0:0000000000000012
#015390:5232000000000000
#0153c0:0000522200000000
#016320:0000000000000012
#017350:5232000000000000
#017320:0000522200000000
#0203b0:0000000013230000
#020351:0000000000132300
#020380:0000000000001323
#021320:0000000013230000
#021381:0000000000132300
#022321:13
#022361:0000002300000000
#023321:0000000000120000
#024321:22
#0243b0:13
#024370:0000002300000000
#0253c0:0000000000120000
#0263c0:22
#026321:13
#026361:0000002300000000
#028321:0000000013230000
#028380:0000000000132300
#028351:0000000000001323
#0293b1:0000000013230000
#029350:0000000000132300
#030370:13
#0303b0:0000000000230000
#032360:13
#032320:0000000000230000
#034340:1222000000000000
#0343a0:0000122200000000
#034320:0000000012220000
#0343c0:0000000000001222
#035330:1323000000000000
#0353a0:0000132300000000
#035320:0000000013230000
#0353b0:0000000000001323
#0383a0:14240000
#038370:0054000000000000
#038321:00142400
#038351:0000005400000000
#042321:14240000
#042351:0054000000000000
#0423a0:00142400
#042370:0000005400000000
#0453b0:00000013
#045370:0000000000000053
#046370:23
#046321:13
#046361:0053230000000000
#0463b0:00130000
#046370:0000005323000000
#046321:0013
#046361:0000000000532300
#0463a0:00000014
#046360:0000000000000054
#047360:24
#047321:14
#047361:0054240000000000
#0473a0:00140000
#047360:0000005424000000
#047321:0014
#047361:0000000000542400
#049361:00000013
#049321:0000000000000053
#050321:23
#050370:13
#0503b0:0053230000000000
#050361:00130000
#050321:0000005323000000
#050370:0013
#0503b0:0000000000532300
#050361:00000014
#050321:0000000000000054
#051321:24
#051360:14
#0513a0:0054240000000000
#051361:00140000
#051321:0000005424000000
#051360:0014
#0513a0:0000000000542400
#051360:0000000000000013
#052320:00230000
#053360:00130000
#053350:000000000000003300000000000000000000000000000000
#053340:000000000000000033333300000000000000000000000000
#053330:000000000000000000000033000000000000000000000000
#053320:0023
#0543a0:14240000
#054360:0054000000000000
#054321:00142400
#054361:0000005400000000
#058321:14240000
#058361:0054000000000000
#0583a0:00142400
#058360:0000005400000000
#061320:00000013
#061350:0000000000000053
#062350:23
#062381:13
#0623b1:0053230000000000
#062320:00130000
#062350:0000005323000000
#062381:0013
#0623b1:0000000000532300
#062320:00000014
#062340:0000000000000054
#063340:24
#063381:14
#0633a1:0054240000000000
#063320:00140000
#063340:0000005424000000
#063381:0014
#0633a1:0000000000542400
#0653b1:00000013
#065381:0000000000000053
#066381:23
#066350:13
#066320:0053230000000000
#0663b1:00130000
#066381:0000005323000000
#066350:0013
#066320:0000000000532300
#0663a1:00000014
#066381:0000000000000054
#067381:24
#067340:14
#067320:0054240000000000
#0673a1:00140000
#067381:0000005424000000
#067340:0014
#067320:0000000000542400
#067370:0000000000000013
#0683b0:00230000
#075340:0000000000000013
#077340:0023
