This file was generated by Ched 2.6.2.0.
#TITLE "hibana H"
#ARTIST ""
#DESIGNER ""
#DIFFICULTY 0
#PLAYLEVEL
#SONGID ""
#WAVE ""
#WAVEOFFSET 0
#JACKET ""
#REQUEST "ticks_per_beat 480"
#00002: 4
#BPM01: 200
#00008: 01
#TIL00: ""
#HISPEED 00
#MEASUREHS 00
#03718:00001313
#03715:0000000000130013
#04815:1313
#04818:00130013
#0481b:0013
#04812:0000130000000013
#02218:0000001300000013
#02212:2413
#0221b:0000000000130000
#02215:00000013
#0221a:24
#0231b:0013000000000000
#02318:0000001300001300
#02312:1300000000130000
#02315:0000130000000013
#02615:0013
#02618:2300000000130000
#02612:23000013
#0261b:0000001300000000
#0261a:0000000000000014
#05212:00130000
#05218:0000001300000000
#0521b:00000013
#05215:0013
#01812:1300001300000013
#01815:0013
#01818:0000000000130013
#0181b:13000013
#01810:41
#0631b:0000000000000013
#06317:14
#06315:0014
#06415:1313
#06412:0000130000000013
#06418:00130013
#0641b:0013
#06818:0000130000000013
#06815:0000001300000000
#06812:00000013
#0681b:0013
#0491b:00000013
#04918:0013001300000000
#04915:00131300
#04912:00000013
#06918:0013001300000000
#06915:13130000
#06912:00001313
#0691b:00001313
#06515:0000001300001300
#06518:00130000
#06512:0013000000000000
#0651b:00001313
#01718:00000013
#01716:0014000000000000
#01712:0000001400000000
#01318:0013001300001300
#01315:13130000
#0131b:0013
#01312:0013
#05112:1400000000000013
#05117:0014
#06712:0000000000000013
#06715:14
#06717:0014
#00113:0014
#0041b:1313
#00415:0013000000130000
#00418:00130013
#00412:0000001300000013
#00518:13
#00515:0000001300000000
#00512:00000024
#0051a:00000024
#00612:0013001300130013
#00618:23131313
#00610:41
#0071b:13000013
#00718:00131300
#00715:0013000000130000
#00712:0000001300000000
#0021a:1400001400001400
#00214:1400001400001400
#00312:1400001400001400
#00318:1400001400001400
#00815:13131313
#0081b:0013001300130013
#00912:13
#00915:00131300
#00918:0013000000001300
#0091b:0000001300000000
#01015:0013000000130000
#0101b:23131313
#01012:0000001300000013
#01118:13130013
#01115:0013001300000000
#0111b:0013
#01112:0000000000130000
#01218:0013000000130000
#01212:23131323
#0121b:0000002300000013
#0141b:0000001300000000
#01412:0013
#01418:0000000000130000
#01415:23000013
#0141a:0000000000000014
#01516:0014000000000000
#0151a:0000001400000000
#01512:0000000000130000
#01518:00000013
#01515:0000000000000013
#0161b:1313
#01612:0000001300000014
#01615:0000000000130000
#01618:00000013
#01915:0013000000000000
#01912:0000001300000000
#01918:0000001300000000
#0191b:0013000000000013
#0211b:00130013
#02118:1313
#02115:0013000000130000
#02112:0000001300000000
#02015:13130000
#0201b:0013001300000000
#02012:0000000013000013
#02018:0000000000131300
#02415:0000001300000013
#0241b:2313
#02412:0000000000130000
#02418:00000013
#02512:0013000000000000
#02515:0000001300001300
#0251b:13000013
#02518:00130000
#02716:0014000000000000
#02712:0000001400000000
#0271b:0000000000000013
#02815:1313
#02818:0013001300000013
#02812:00130013
#0281b:0000000000130000
#02915:13130000
#0291b:0013000000130000
#02918:0000001300000000
#02912:00001313
#03018:00130000
#03015:2300000000000013
#0301b:2300000000130000
#03010:41
#03115:0000001300000000
#03118:00131300
#03112:00000013
#0311b:00000013
#03215:00130000
#03218:2300000000001313
#03212:2300000000130000
#03318:0000001300130000
#03315:00131300
#03312:00000013
#0331b:00000013
#0341b:23130000
#03415:0013001300000000
#03418:00002313
#03412:0000000000130013
#03515:0013000000130000
#03518:00130013
#03512:0000001300000013
#0351b:2323
#0411b:00130000
#04115:0000001300000014
#04118:0013
#0411a:0000000000000014
#03915:0000001300000000
#03912:0013000000001300
#03918:00130013
#0391b:0013
#0381a:00140000
#0381b:00000013
#03815:0000140000000013
#03817:24
#03812:24
#03810:41
#04512:00130013
#04518:0000001300000000
#04515:0013
#0451b:00000013
#04318:0000001300000000
#0431b:0013000000001300
#04315:00130013
#04312:0013
#04212:00140013
#04218:0000000000000013
#04217:00140000
#04215:24
#0421a:24
#0471b:0000000000000013
#0471a:14
#04715:0014
#0461b:13
#04616:0013
#0461f:11
#05318:00130000
#05315:0000001300000000
#05312:0013
#0531b:0013
#05314:00000013
#05319:00000013
#05512:0000001300001300
#05515:0013000000000000
#0551b:00130000
#05518:00001313
#05510:0041
#05718:0000001300000013
#05712:00130000
#05715:0013
#05418:0013001300001300
#05415:00130000
#05412:2300000023000013
#0541b:23
#0541f:21
#05915:00001313
#0591b:0000001300001300
#05918:0013000000000000
#05912:00130000
#0611b:00130000
#06115:0000001300000000
#06118:00001313
#06112:00000013
#06218:13
#06215:0013
#0721b:00131300
#07212:2300000000000013
#07218:00000013
#07215:00131300
#07118:0000000000000013
#07318:0013001300000000
#07315:00130000
#07312:00001313
#0731b:00001313
#05012:13
#05017:0013
#05815:0013001300001300
#0581b:2300000023000013
#05818:00130000
#05812:23
#06615:13
#06618:0013
#03612:00000023
#0361b:00000023
#07010:41
#02258:0000000000000013
#0235b:0013000000000000
#02358:0000001300000000
#00558:13
#00555:0000001300000000
#00552:00000014
#0055a:00000014
#00955:0013
#00958:00000013
#02455:0000000000000013
#02552:0013000000000000
#02555:0000001300000000
#02752:0000001400000000
#02756:0014000000000000
#0265a:0000000000000014
#03058:00630000
#03055:0000000000000063
#03255:00530000
#03258:0000000000000053
#03652:00000013
#0365b:00000013
#04158:0013
#04555:0013
#0465b:53
#04656:0053
#0475a:54
#04755:0054
#05755:0013
#06158:0013
#06258:63
#06255:0053
#06357:64
#06355:0054
#0145a:0000000000000014
#01556:0014000000000000
#0155a:0000001400000000
#01652:0000000000000014
#01756:0014000000000000
#01752:0000001400000000
#0385a:00540000
#03857:54
#03855:00540000
#03852:54
#04252:00640000
#04257:00640000
#04255:64
#0425a:64
#05052:63
#05057:0063
#05152:64
#05157:0064
#06655:53
#06658:0063
#06755:54
#06757:0064
#05452:0013
#0585b:0013
#000390:143424000000
#000330:000000143424
#001390:143424000000
#030380:00130000
#0303b0:0023
#030350:0000000000000013
#031320:0023000000000000
#032350:00130000
#032320:0023
#032380:0000000000000013
#0333b0:0023000000000000
#036320:13000000000000000053000023000000
#036350:00000053000033000000000000000000
#0363b1:13000000000000000053000023000000
#036381:00000053000033000000000000000000
#038371:1424
#0383a1:00340000
#038320:1424
#038350:00340000
#040320:0013002300000000
#040380:00001323
#040350:0000000000000013
#041350:0023000000000000
#042350:1424
#042320:00340000
#0423a1:1424
#042371:00340000
#0443b1:0013002300000000
#044351:00001323
#044381:0000000000000013
#045381:0023000000000000
#0463b1:13
#046371:00230000
#046361:0013
#046321:00000023
#0473a1:14
#047371:00240000
#047351:0014
#047321:00000024
#050321:13
#050361:00230000
#050371:0013
#0503b1:00000023
#051321:14
#051351:00240000
#051371:0014
#0513a1:00000024
#052351:0000000000000013
#053351:0023000000000000
#056381:0013002300000000
#056351:00001323
#0563b1:0000000000000013
#0573b1:0023000000000000
#060351:0013002300000000
#060381:00001323
#060321:0000000000000013
#061321:0023000000000000
#062381:13
#0623b1:00230000
#062351:0013
#062321:00000023
#063371:14
#0633a1:00240000
#063351:0014
#063321:00000024
#066351:13
#066321:00230000
#066381:0013
#0663b1:00000023
#067351:14
#067321:00240000
#067371:0014
#0673a1:00000024
#070321:13
#070351:00230000
#070380:13
#0703b0:00230000
#0703b0:00001323
#070351:00001323
#0713b1:13
#071381:00230000
#071350:13
#071320:00230000
#071320:00001323
#071381:00001323
#074321:13
#074351:00230000
#074380:13
#0743b0:00230000
#0743b0:0013
#074380:00000023
#074351:0013
#074321:00000023
#075321:13
#075351:00230000
#075380:13
#0753b0:00230000
#0753b0:0013
#075380:00000023
#075351:0013
#075321:00000023
#075321:0000000000000013
#077321:0023
