This file was generated by Ched 2.6.2.0.
#TITLE "hibana MAS"
#ARTIST ""
#DESIGNER ""
#DIFFICULTY 0
#PLAYLEVEL
#SONGID ""
#WAVE ""
#WAVEOFFSET 0
#JACKET ""
#REQUEST "ticks_per_beat 480"
#00002: 4
#BPM01: 200
#00008: 01
#TIL00: ""
#HISPEED 00
#MEASUREHS 00
#00019:131313131313
#00014:131313131313
#00119:131313130000
#00116:00000014
#00114:131313130000
#00512:1300001300132300
#00515:00001300130000000013000000000000
#00518:00000013000000001300130000000000
#0051b:1300131300002300
#03012:2300001300130000
#03017:2300001300000012
#0301b:00131300
#03018:0000000000130000
#03015:00000000000000000013000000000000
#03016:00130000
#03014:0013000000000000
#03010:41
#03112:12000012
#0311a:1200001200120000
#0311c:0012
#03116:00000000000012000012000000000000
#03118:00120012
#03115:0012000000000000
#03114:00000000000000000000001200000000
#03612:1c00001c00002c00
#03616:0000140000140000
#03614:00000000001800000000001800000000
#03718:0000000013131313
#03715:00000000000000000013001300130013
#03812:1300130000000013
#03814:00000013
#03817:0013001313000013
#03819:00130013
#0381b:2300000000130000
#03816:0000000000130000
#03810:41
#04017:0000130000130013
#04018:0013001300000000
#04012:2313000013001300
#04016:0013
#0401b:0000130000130023
#04015:13
#04115:0013000000001313
#04117:00130000
#04114:00000000001300000000000000000000
#0411b:0013
#04119:0000001300000000
#04116:00000000000000130000000000000000
#04118:00000000000000000000000000130013
#04112:00000013000000000000000000000000
#04812:00131200
#04816:0000001313001200
#04814:0000000000120000
#0481b:1300001300000000
#04815:13
#0481a:00000033
#04818:0000000000330000
#02218:0000001200000012
#0221b:2300000012000013
#02216:0000130000120000
#0221a:00000012
#02214:00000000000000120000000000000000
#02217:13
#02317:0000000000120000
#0231a:00000012
#02315:1212001300000012
#02318:0013000000000000
#02312:0000121200000000
#00618:12120012
#00615:0012000000120000
#0061c:00120012
#00619:0000001200000012
#00616:0012
#00612:2212
#00610:41
#01212:00131300
#01215:2316131316002316
#0121b:0013000000130013
#01218:1300002300131300
#0131c:1212
#01316:0012001200000000
#01318:00000012000012000000000013000000
#01313:00120000
#01312:1212
#01315:00000013
#0131b:00120000
#01314:0000000000130000
#01319:0000000000130000
#0141a:2400001212000000
#01414:0000000000121200
#0141c:0000000000000012
#01412:24
#03919:0000121200001200
#03915:0012120012000000
#0391c:0012
#03912:00000012
#03917:0000000000120000
#01515:0000000000120012
#01519:00000012
#0151c:0000001200000000
#01517:0012000000000000
#01619:12
#01614:0000001212000000
#0161a:0000000000121200
#01612:0000000000000012
#01818:0000001200000000
#01816:0000000000120000
#01814:00000012
#01817:0000000000000012
#0181a:1412
#01812:1400000000000012
#01810:41
#01917:0012001200000000
#0191c:0012000000000000
#01912:0000001200000013
#01915:0000000000000013
#01714:00000013
#01719:00000013
#01712:0000001200000000
#01717:0012000000000000
#04915:0000000000120012
#04912:00001212
#0491a:00000000000000000012001200000000
#0491c:00000012
#04919:0000000000000012
#0521b:00131313
#05212:0000001300000000
#05216:0000000000000012
#05217:0000001313000000
#05218:0000000000130000
#05214:0000000000330000
#05112:0000000000000013
#05117:0000000000000013
#05116:0012120000121200
#05118:0000001200000000
#0511c:1212
#05119:0032000000320000
#05113:0000003200000000
#05417:0013000000131313
#05412:13231313
#0541b:2300130023000013
#0541a:0013000000000000
#05416:0000001300000000
#05413:0000001300000000
#0541f:21
#0571b:00131300
#05712:00000000001300001300000000000000
#05718:00001300000013000000000000000013
#05715:00000013000000130000000000000000
#05714:0000000000000013
#0571a:00000000000000000000000000130000
#05716:00000013
#0701c:1200001200000000
#0701a:0012000000000000
#07018:00121200
#07016:2200001200001200
#07012:0000000012000012
#07014:0000000000120000
#07019:0000000000000012
#07010:41
#06319:00000000000000000000000000000013
#06312:1300000000001313
#06316:0012000000120000
#06318:00131300
#06315:0000001200000000
#06417:13130000
#0641b:1300000013000013
#06412:00001313
#06414:00003300001300000000130000000000
#06419:0013001300330000
#06416:00000000000000130000000000000000
#06118:00000013000000130000000013000000
#06115:0013001300001300
#06112:00131300
#0611b:00000000001300001300000000000000
#05318:12
#05316:0012003300000000
#05319:000000000000003300000000000000000000000000130000
#05313:00000000000000000000000000130000
#05315:00000000000000000000000000000013
#05317:000000003300000000130000
#05312:0023
#05314:000000000000000000003333000000000000000000000000
#07316:0012001200000012
#07318:0000120012000012
#07314:00120000
#07315:0000000000120000
#0731a:0000001200000000
#07312:00000012
#03515:0000000000000016
#03514:00000000000000002200000000000018
#03517:00120000120000000000000012000000
#03512:2212001200000000
#0351c:00000012001200000012000000000000
#03516:00000000000000120000000000140000
#03518:0000000000120000
#0351a:00000000000000000000001200000000
#0251a:00000012
#02514:00000012
#02515:0013000000000000
#02518:0000001300000000
#0251c:0000121200000000
#02519:1212000000000000
#02612:0000000000000012
#02617:1300000000000012
#02618:0000001200000000
#0261b:2312
#02616:0000130000120000
#0261a:00000012
#02614:00000000000000120000000000000000
#0271c:0012000000000000
#02712:0000001200000013
#02717:0012001200000000
#02714:12120000
#0271a:12120000
#04519:00000000001300000000000012000000
#04515:00000012
#04518:0013000000000000
#04516:00130000
#04512:0013
#04514:0000001300000000
#04517:00000000000000130000000000000000
#0451b:00000013000000000000000000000000
#0551c:0000001200000000
#05515:12120000
#05512:0012000000000000
#05519:12120000
#0551b:00001313
#05516:0000000000130000
#05510:0041
#0561b:0013130013130013
#05617:2313131313131313
#05612:2300001300001300
#0651b:0000000000130000
#06512:0013
#06515:00000000000000000013000013000000
#06518:00000000000000000000001300000000
#0651a:0000000000000013
#06513:0000000000000013
#06816:0000001313000012
#06812:00131313
#0681b:0000001300000000
#0671b:1300000000001313
#06718:0012000000120000
#06715:00131300
#06719:0000001200000000
#06918:12000000130000001300001300001300
#06916:0012000000000000
#06912:00000000001300130000000000000013
#06915:00000000000013000013000000130000
#0691b:0000000000131300
#07218:00120000
#07217:00000012
#0721a:0000001200000022
#07216:00000000000000120000000000000000
#07214:00000000001200000000120000000000
#07212:0012
#07219:22
#07117:00000000000000000000000000000012
#07112:0000000012000012
#0711c:1200001200000000
#0711a:0012000000000000
#07118:00121200
#07115:0000001200000000
#07114:0000000000120000
#07116:22000012
#06212:13000013
#06216:0012000000120000
#06218:00131300
#06215:0000001200000012
#04712:12000000000000001200000000000013
#04717:0000000000000013
#04718:0012120000121200
#04716:0000001200000000
#04714:0032000000320000
#0471a:0000003200000000
#02012:1c1300001c000013
#02015:0000130000001313
#02018:0000131300001300
#0201b:0000001300130000
#02112:1c1300001c000000
#02115:00130013
#02118:0000131300001300
#0211b:0000001300130000
#00716:12
#00712:1213
#00714:0012000000000000
#00718:00120013
#0071c:00120000
#0071a:00000000000012000000333300000000
#00715:0000000000130000
#00719:00000000000000000033000000000000
#00812:1212
#00816:0012000000120000
#0081c:00120012
#00818:0000001200000012
#00918:1200000000000012
#0091c:12
#0091a:0012000000001200
#00916:00000000120000000000000000120000
#00912:00120000
#00914:00000000000012000000000000000012
#0101c:1212
#01015:0012000000120000
#01012:00120012
#01016:00120012
#01019:0000001200000012
#01018:2212
#0111b:0013
#01118:0000000000130000
#01115:0000001200001300
#0111c:12
#01117:12120000
#01119:0012000000000000
#01112:00120000
#01116:00000000000000000033000000000000
#01114:0000000000330000
#01113:00000000000000000000003300000000
#07412:1222
#07416:0012000000000012
#07415:0000001200000000
#07418:0000001200120000
#0741c:2212
#07419:0000000000000012
#07413:00220000
#0741b:00000022
#07512:1222
#07516:0012000000000000
#07515:0000001200000000
#07518:0000001200120000
#0751c:2212
#07513:00220000
#0751b:00000022
#02412:2300000000000013
#02416:1300001200000012
#02413:0012
#02418:0000000000120000
#02414:00000012
#0241a:00000000000000120000000000000000
#02417:00130000
#03217:0000130000000012
#0321a:00000012
#0321b:2300001300130000
#03212:00131300
#03215:0000000000130000
#03218:00000000000000000013000000000000
#03216:2300001300000000
#03219:0013000000000000
#00218:00120012001200120012001200000000
#0021c:2212121212121200
#00215:00000000000000000000000000120000
#00212:00000000000000000000000000000012
#00219:0000000000000012
#00316:1212121212120000
#00312:00120012001200120012001200000000
#00319:00000012
#00315:00000000000000000000000000120000
#0031c:0000000000000012
#00318:00000000000000000000000000000012
#00412:1c131c001c001c001c001c001c131c00
#00418:00000013000000000000001300000000
#00415:00000000001300000013000000000013
#0041b:00000000000000130000000000000000
#03418:00130013000000000000120000000000
#03416:0012000000000000
#03414:00000000001300000000000000000013
#03417:0000001200000012
#03419:00000000000000130000000000130000
#0341c:00120012
#03415:00000000000000000013001300000000
#03412:2222
#0461c:12
#04618:0012120000121200
#04616:0000001200000012
#04612:1212
#0461f:11
#04614:0032000000320000
#0461a:0000003200000032
#0421b:1300130000000013
#04219:00000013
#04216:0013001313000013
#04214:00130013
#04212:2300000000130000
#04217:0000000000130000
#04315:0000121200001200
#04319:0012120012000000
#04312:0012
#0431c:00000012
#04317:0000000000120000
#0661b:13000013
#06618:0012000000120000
#06615:00131300
#06619:0000001200000012
#05816:0013000000131313
#0581b:13231313
#05812:2300130023000013
#05813:0013000000000000
#05817:0000001300000000
#0581a:0000001300000000
#05912:0000001213001300
#05919:12120000
#0591c:0012000000000000
#05915:12120000
#05917:0000000000130000
#06012:0013130013130013
#06016:2313131313131313
#0601b:2300001300001300
#05012:12
#05016:0012120000121200
#05018:0000001200000012
#0501c:1212
#0501a:0032000000000000
#05013:0000003200000000
#05019:0000000000320000
#05014:0000000000000032
#04416:0000130000130013
#04415:0013001300000000
#0441b:2313000013001300
#04417:0013
#04412:0000130000130023
#04418:13
#0331c:12000012
#03314:1200001200120000
#03312:0012
#03318:00000000000012000012000000000000
#03316:00120012
#03319:0012000000000000
#0331a:00000000000000000000001200000000
#02812:1900001313130000
#02815:0000131319001300
#0281b:1313000000000013
#02818:0000130000001313
#02912:1900001313130000
#02915:0000131319001300
#0291b:1313000000000000
#02918:00130013
#00156:00000014
#04052:0063000000000000
#04056:0063
#04057:0000230000000063
#0405b:0000000000230000
#03652:3c00004c00001c00
#05152:4200000042000063
#0515c:6262
#05156:00620000
#05158:00420042
#00658:12
#03859:00430000
#03857:0023002343000000
#03852:5300630000000013
#0385b:43
#04952:00000012
#06555:00000013
#0675b:4300000000000063
#06755:0043
#0565b:0013000013000013
#02052:4c3c
#02152:4c3c
#00852:12
#0105c:12
#01152:00000033
#01258:13000013
#01255:0000001300000000
#0225b:0000000000000043
#02257:53
#02358:0043000000000000
#02355:0000004300000000
#02452:0000000000000033
#02456:63
#02555:0033000000000000
#02558:0000003300000000
#04652:5252
#04658:00520052
#04656:00320032
#0465c:3232
#04752:5252
#04758:00520000
#04756:00320032
#0475c:3232
#0415b:0043
#0425b:6300530000000013
#04256:0023002333000000
#04254:00330000
#04252:33
#04856:0063
#0485b:63
#05257:0063
#0545b:4300530043000013
#05457:0023000000000000
#05456:0000002300000000
#05452:53330000
#05752:0033
#0575b:0043
#0615b:0043
#06152:0033
#05852:3300630033000013
#05857:0000002300000000
#05856:0023000000000000
#0585b:63430000
#06052:0013000013000013
#06457:53
#0645b:0053
#06856:0053
#0505c:6262
#05056:00620062
#05058:00420042
#05052:4242
#00552:33000033
#0055b:0000004300004300
#0075b:00000043
#02657:5300000000000042
#02757:0032004200000000
#03152:00000032
#04456:0000230000000053
#04457:0053
#0445b:0053000000000000
#04452:0000000000230000
#04552:0033
#06252:33
#06258:0033
#06352:33
#06358:0033
#0665b:43
#06655:0043
#0335c:00000042
#0705c:32
#07052:0042
#0715c:32
#07152:0042
#07452:42
#0745a:00320000
#07454:00000032
#0745c:0042
#0755a:00420000
#07552:32
#0755c:0032
#07554:00000042
#02852:39
#02855:0049
#02952:39
#02955:0049
#03056:00630000
#03052:0000002300000000
#03257:00530000
#0325b:0000002300000000
#05352:0033
#007350:0013
#007390:00000000000000000033000000000000
#0073a0:00000000000000000000333300000000
#0073b0:00000023
#0083b0:1222000000000000
#008330:0000122200000000
#008390:0000000012220000
#008350:0000000000001222
#009360:0000000012220000
#0093c1:0000000012220000
#011381:0013
#011361:00000000000000000033000000000000
#011341:0000000000330000
#011331:00000000000000000000003300000000
#011321:00000023
#014371:0000000000000012
#015321:0032000000000000
#015371:0000002200000000
#016371:0000000000000012
#0173c1:0032000000000000
#017371:0000002200000000
#022371:13
#022321:00230000
#024361:13
#0243b1:00230000
#026371:13
#026321:00230000
#030361:00132300
#030321:0000005300000000
#032371:00132300
#0323b1:0000005300000000
#038321:13332300
#038371:0033003300000000
#040321:0013002300000000
#040371:00530000
#040361:00001323
#0403b1:0000000000530000
#040371:0000000000000013
#041321:00532300000000000000000000000000
#0423b1:13332300
#042361:0033003300000000
#0443b1:0013002300000000
#044361:00530000
#044371:00001323
#044321:0000000000530000
#044361:0000000000000013
#0453b1:00532300000000000000000000000000
#046321:12
#046341:0032000000000000
#046361:00220000
#046380:00120000
#0463a0:0000003200000000
#0463c0:0022
#046321:0012
#046341:0000000000320000
#046361:00000022
#046380:00000012
#0463a0:0000000000000032
#0473c0:22
#047321:12
#047341:0032000000000000
#047361:00220000
#047380:00120000
#0473a0:0000003200000000
#0473c0:0022
#047321:0012
#047341:0000000000320000
#047361:00000022
#0483b1:13
#048361:00230000
#048361:0013
#048381:0000000000330000
#0483a1:00000033
#0483b1:0000000000000023
#048380:0000000000000012
#049380:0022000000000000
#0493c1:0012220000000000
#049340:0000122200000000
#049381:0000001222000000
#0503c1:12
#0503a1:0032000000000000
#050381:00220000
#050360:00120000
#050330:0000003200000000
#050320:0022
#0503c1:0012
#050391:0000000000320000
#050381:00000022
#050360:00000012
#050340:0000000000000032
#051320:22
#0513c1:12
#051391:0032000000000000
#051381:00220000
#051360:00120000
#051330:0000003200000000
#051320:0022
#0513c1:0012
#051391:0000000000320000
#051381:00000022
#051321:0000000000000013
#052371:00230000
#052371:0013
#052341:0000000000330000
#052321:00000023
#0533b1:00130000
#053391:000000000000003300000000000000000000000000000000
#053371:003300
#053361:0000003300000000
#053341:000000000000000000003333000000000000000000000000
#053321:0023
#054321:13230000
#054371:0033000000000000
#0543b0:00132300
#054360:0000003300000000
#055370:00001323
#055320:0000000000330000
#0583b0:13230000
#058360:0033000000000000
#058321:00132300
#058371:0000003300000000
#059361:00001323
#0593b1:0000000000330000
#0623b1:1323000000000000
#0623b1:0000132300000000
#0623b1:0000000013230000
#0623b1:0000000000001323
#0633b1:1323000000000000
#0633b1:0000132300000000
#0633b1:0000000013230000
#0633b1:0000000000001323
#064371:13
#064341:0033000000000000
#064321:00230000
#0643b1:0013
#064391:0000000000330000
#064371:00000023
#064371:0000000000000013
#065371:0023000000000000
#0653b0:0013230000000000
#065321:0000132300000000
#065370:0000001323000000
#066320:1323000000000000
#066320:0000132300000000
#066320:0000000013230000
#066320:0000000000001323
#067320:1323000000000000
#067320:0000132300000000
#067320:0000000013230000
#067320:0000000000001323
#0673b1:0000000000000013
#068361:00230000
#068361:0013
#0683b1:00000023
#070341:0012220000000000
#0703b1:0000000000122200
#071331:0012220000000000
#0713b1:0000000000122200
#072321:12220000
#0723c1:00001222
#072321:0000000000000012
#073321:0022000000000000
#0733c1:00001222
#0743a1:0012220000000000
#074341:0000000000122200
#0753a1:0012220000000000
#075341:0000000000122200
#075351:0000000000000012
#077351:0022
#075390:0000000000000012
#077390:0022
