This file was generated by Ched 2.6.2.0.
#TITLE "hibana N"
#ARTIST ""
#DESIGNER ""
#DIFFICULTY 0
#PLAYLEVEL
#SONGID ""
#WAVE ""
#WAVEOFFSET 0
#JACKET ""
#REQUEST "ticks_per_beat 480"
#00002: 4
#BPM01: 200
#00008: 01
#TIL00: ""
#HISPEED 00
#MEASUREHS 00
#0021a:14141414
#00314:14141414
#0101a:1414
#01014:00140014
#0141a:1414
#01414:14
#01514:14
#01518:0014
#01612:14
#01616:0014
#0321a:14
#0341a:1414
#03414:00140014
#03512:00140014
#03518:1414
#03818:00001414
#03814:0000000000140000
#03812:00140000
#0381a:24
#03810:41
#00418:14141414
#0061a:14140000
#00614:00001414
#00610:41
#00718:14140000
#00712:00001414
#0081a:14140000
#00814:00001414
#00912:00001414
#00918:14140000
#01212:1414
#01218:00140014
#01812:1414
#01818:14
#01810:41
#01918:14
#01914:0014
#0201a:14
#02016:0014
#03312:14
#0541a:24140014
#05412:2400140000140000
#05418:0014
#0541f:21
#0481a:1414
#04814:00140014
#0491a:1414
#04914:00140000
#05212:1414
#05218:00140014
#05312:1414
#05318:00140000
#0641a:14
#06418:00140014
#06412:0014
#0651a:14
#06518:00140014
#06512:0014
#0681a:14
#06816:00140014
#06812:0014
#0691a:14000014
#06914:00141400
#06918:0000001400000000
#0281a:14
#02814:00140000
#02818:0014
#02812:00000014
#02918:14
#02914:00140000
#0291a:0014
#04212:14
#04214:00001414
#04218:0000000000140000
#0421a:00140000
#05812:14140014
#0581a:1400140000140000
#05814:0014
#07012:14
#07014:00140014
#0701a:0014
#07010:41
#07112:14
#07114:00140014
#0711a:0014
#07412:14
#0741a:00140000
#07414:0014
#07418:00000014
#07512:14
#0751a:00140000
#07514:0014
#07518:00000014
#02112:00000014
#0221a:1414
#02214:00140014
#02318:1414
#02312:00140014
#0241a:1414
#02414:00140000
#02412:00000014
#02518:1414
#02514:00140000
#02512:00000014
#0261a:14
#02614:00140000
#02618:0014
#02612:00000014
#0271a:14
#02714:00140000
#02718:0014
#02712:00000014
#03912:14
#0391a:00140000
#03914:00001414
#03918:0000000000140000
#0431a:14
#04312:00140000
#04318:00001414
#04314:0000000000140000
#05512:14140014
#0551a:1400140000140000
#05514:0014
#05510:0041
#0591a:14140014
#05912:1400140000140000
#05918:0014
#0461f:11
#03619:1500001500001500
#03612:1500001500001500
#03010:41
#0325a:64
#03352:54
#03659:00000015
#03652:00000015
#005320:14
#005350:0000003400002400
#0113a0:14342400
#013320:14342400
#017320:14
#017340:0024
#0213a0:14
#021380:0024
#0303a0:14
#030380:0024
#031320:14
#031340:0024
#0323a0:14
#032380:0024
#033320:14
#033340:0024
#0403a0:1400003400000034
#040380:00003434
#0413a0:0034343424000000
#044320:1400003400000034
#044340:00003434
#045320:0034343424000000
#0463a0:14240000
#046340:00001424
#047380:14240000
#047320:00001424
#050320:14240000
#050380:00001424
#051340:14240000
#0513a0:00001424
#0563a0:1400003400000034
#056380:00003434
#0573a0:0034343424000000
#060320:1400003400000034
#060340:00003434
#061320:0034343424000000
#062380:14
#062390:00240000
#062340:0014
#062330:00000024
#063380:14
#0633a0:00240000
#063340:0014
#063320:00000024
#0663a0:14
#066380:00240000
#066320:0014
#066340:00000024
#067380:14
#0673a0:00240000
#067340:0014
#067320:00000024
#072320:14
#072340:00240000
#0723a0:0014
#072380:00000024
#073340:14
#073320:00240000
#073380:0014
#0733a0:00000024
#076340:18
#077360:0024
