This file was generated by Ched 2.7.0.0.
#TITLE ""
#ARTIST ""
#DESIGNER ""
#DIFFICULTY 0
#PLAYLEVEL
#SONGID ""
#WAVE ""
#WAVEOFFSET 0
#JACKET ""
#REQUEST "ticks_per_beat 480"
#00002: 4
#BPM01: 126
#00008: 01
#TIL00: ""
#HISPEED 00
#MEASUREHS 00
#04218:1616
#0051a:14
#00614:14
#00718:14
#00812:14
#0091a:14
#00910:41
#01012:14
#01312:14
#0141a:14
#0171a:14
#01710:41
#01812:14
#01918:14
#02014:14
#0211a:14
#02212:14
#02512:14
#02510:41
#0261a:14
#02714:14
#02818:14
#02912:14
#0301a:14
#05314:14
#05418:14
#0371a:14
#03812:14
#05112:14
#05110:41
#0521a:14
#04112:0016
#04118:26
#0411f:21
#04110:0041
#04612:1616
#04518:0016
#04512:16
#05512:14
#0561a:14
#0331f:11
#03210:41
#001390:14
#002390:24
#003330:14
#004330:24
#011380:14
#012380:24
#015340:14
#016340:24
#0233a0:14
#0243a0:24
#031320:14
#032320:24
#033380:14
#034380:24
#035340:14
#036340:24
#039380:16
#040380:26
#043320:1626
#044380:1626
#047380:1626
#048320:1626
#049380:16
#050380:26
#057320:14
#058320:0034000000000000
#059320:0000000000000000000000340000000000000000000000000000000000000000
#060320:0000000000340000
#061320:00000000003400000000000000000000
#062320:00240000
