This file was generated by Ched 2.7.0.0.
#TITLE ""
#ARTIST ""
#DESIGNER ""
#DIFFICULTY 0
#PLAYLEVEL
#SONGID ""
#WAVE ""
#WAVEOFFSET 0
#JACKET ""
#REQUEST "ticks_per_beat 480"
#00002: 4
#BPM01: 126
#00008: 01
#TIL00: ""
#HISPEED 00
#MEASUREHS 00
#0001b:00000013
#00012:00000000000000000000000000130000
#00018:0000000000000013
#00015:00000000000000000000000000000013
#00115:0000001300000013
#00118:0000000000130000
#0011b:0000000000000013
#0041b:00000013000000000000000013000000
#00415:00000013000000000000000000130000
#00419:0000000000000013
#00413:00000000000000000000000000000013
#00418:13
#00516:00000013000000000000130000001300
#00517:1300001300001300
#0051b:00000013000000000000000000001300
#00512:0000001300001300
#00815:00001300000023000000000000000013
#00818:00000023001300000000000000001300
#0081b:23002313
#00812:23000000000000002300000000130000
#0091b:1300001300001300
#00915:00000000000013000000000000130000
#00912:00000013000000000000000000000000
#00918:00000013000000000000130000001300
#00910:41
#0151b:00000000000000000000001300000000
#01512:1300001400000013
#01516:00000000000000140000001300000000
#01518:13
#01517:0000000000000013
#0151a:0014
#01515:00130000
#0161b:2300002313000013
#01612:23000023000000001300001300000000
#01618:00000023000000000000000000000000
#01615:0000002300000000
#01712:2300001313000013
#01716:00130000
#01718:23000000000000130000000000000000
#0171b:00000000130000000000001300000000
#01710:41
#0201b:00000000000000001300001300000000
#02012:1300000013000013
#02014:0000001300000000
#02016:00130000
#02017:13
#02312:13
#02318:0000001300000000
#0231b:0013
#02315:0000000000000013
#02412:1300000013000013
#02415:00000000000013000000001300000000
#0241b:13000013
#02418:00000000000000130000000000001300
#0251b:1300001313001300
#02516:00000000000000130000000000000000
#02515:13000000000000000000001300000000
#02518:0000130000000013
#02512:0000000000000013
#02510:41
#02718:1300001300001300
#02712:13000000000000130000000000001300
#0271b:0000130013000013
#02715:00000000130000000000001300000000
#02818:00000000130000000000001300000000
#02812:0000130013000013
#0281b:13000000000000130000000000001300
#02815:1300001300001300
#03012:1300130000130000
#03016:0000000000001413
#0301b:1300000000000013
#03018:00130000
#03017:0000000000130000
#03115:00000000000013000000001300000000
#0311b:1313
#03112:1313
#03118:00000013000000000000000000001300
#0331b:1313
#03315:00000000000000130000000000001300
#03312:13000000000000000000001300000000
#03318:0000131300000000
#03317:00000000000000000000001300000000
#0331f:11
#03412:13000013000000001300001300000000
#03416:0000001300000013
#0341b:0000001300000013
#03417:00000013000000000000000000000000
#0371b:13000000000013001300001300000000
#03716:13000000000000130000000000000000
#03717:00130000
#03715:00000000000000000000001300001300
#03718:00000000000000000000000000000013
#03812:00000013000013001300000000001300
#03815:13
#03818:00000013000000000000000000000000
#03817:00000000000000130000000000001300
#03816:00000000000000000000001300000000
#0381b:00000000000000000000001300000000
#0401b:00000023000000000000130000000000
#04012:2300002300000013
#04016:00000013000000000000140014001400
#04017:1300001300000000
#05515:00000000130013001300000000000013
#05518:00000000000000130000001300001300
#05512:13000000000000000000001300000000
#0551b:00130000
#05618:13
#0561b:00000013000000001300000013000000
#05614:00000000000000000000000000000000000000000000000000000000000000000000000000000000000000000000000000000000001300000000000000000000
#05619:00000000000000000000000000000000000000000000000000000000000000000000000000000000000000000000000000000000000000000013000000000000
#05612:00000000000000000000000000000000000000000000000013000000000000001300000000000000000000000000000000000000000000000000000000130000
#05616:00000013000000000000000000000000
#05617:0000001300000000
#00718:13000000000000130000001300000000
#00715:1300001313000000
#00712:00000000000000000000001300000000
#01217:1300001300000000
#01216:00000013000000000000000000000000
#01215:00000000000000000000000000130000
#01218:0000000000000013
#0121b:00000013
#01212:00000000000000000000000000000013
#0321b:2300000000130000
#03219:00000013
#03217:0000000000000013
#03212:1300000000000013
#03216:0000130000130000
#03214:00000013
#03210:41
#04912:1300001300130000
#04918:1300000000000013
#04915:00000013000000000000000013000000
#05218:00000000000000000000000000130000
#05212:0000000013000013
#0521b:00000000000013001300000000000013
#05215:00000013
#05115:00000013000000000000000013000013
#05112:1300001300130000
#05118:1300000000000013
#05110:41
#01112:13000013000000001300000000000013
#0111b:1300001300130000
#01117:00000013000000000000000000001300
#01116:0000001300000000
#04214:0018000000000000
#04215:00160000
#04216:0000001400000000
#04217:0000000012120000
#04318:13
#0431b:0000001300000013
#04312:13
#04315:0000001300000013
#04418:13
#0441b:0013001300000000
#04415:0013001300000000
#04412:13
#0481b:1300001300000013
#04812:1300000000130000
#04815:0000001313000013
#04818:0000000000131300
#05312:1400000013130000
#05315:0000000000001313
#0531a:0000001400000000
#05316:00000014000000000000000000000000
#0531b:0000000000000013
#05717:00001300000000000000000000000000000000000000000000000000001200000000000000000000000000000000000000000000000000000000000000000000
#05712:00120000
#0571c:0000000000000000000000000000000000000000000000120000000000000000
#05812:12000000000000000000001200000000000000000000000000000000000000000000000000000000120000000000000000000000000000000000000000000000
#0581c:00000000000000000000000000000000000000000000000000120000000000000000000000000000000000000000000000000000000000000000000000000000
#05818:12000000000000000000001200000000000000000000000000000000000000000000000000000000000000000000000000000000000000000000000000000000
#05912:00000012000000000000000000000000000000000000000000000000000000000000000000000000000000000000000000000000000000000000000000000000
#0591c:00000000000000000000000000000000000000000000001200000000000000000000000000000000000000000000000000000000000000000000000000000000
#05915:00000000000000000000000000000000000000000000000000000000000000000000000000000000000000000000000000000013000000000000000000130000
#05918:00000012000000000000000000000000000000000000000000000000000000000000000000000000000000000000000000000000000000001300000000000000
#05916:00000000000000000000000000000000000000000000001200000000000000000000000000000000000000000000000000000000000000000000000000000000
#06012:00000000000000000000000000130000000000000000000000000000000000000000000000000000000000000000000000000000000000000000130000000000
#06018:0000000000000000000000000000001300000000001300000000000000000000
#06015:00000000000000000013000000000000
#0601b:00000000000000000000000000130000000000000000000000000000000000000000000000000000000000000000000000000000000000000000130000000000
#06115:00000000000000000000000000000000000000000000001300000000000000000000000000000000000000000000000000000000000000000000000000000000
#06118:0000000000130000000000000000000000000000000000000000000000000000
#00218:1300001300000013
#00215:0000000000130000
#00212:0000000000000013
#00315:13000000000013000000000000000013
#00318:0000000000130013
#00617:00000013000000000000130000001300
#00616:1300001300001300
#00612:00000013000000000000000000001300
#0061b:0000001300001300
#01012:1300001300001300
#01018:00000000000013000000000000130000
#0101b:13000013000000000000000000000000
#01015:00000013000000000000130000001300
#0131b:1300001300000000
#01312:00000013000000001300000000130000
#01317:0000000000001313
#01318:00000013000000000000130000000000
#01315:0000001300000000
#01418:0000001300000013
#01415:00000013000000000000130000000013
#01412:1300001300000000
#0141b:00000013000000001300000000000000
#0181b:13000000000000001300001300000000
#01817:00130000
#01816:13
#01812:0000000013000013
#02612:1300001313001300
#02617:00000000000000130000000000000000
#02618:13000000000000000000001300000000
#02615:0000130000000013
#0261b:0000000000000013
#03512:1313
#03518:00000000000000130000000000001300
#0351b:13000000000000000000001300000000
#03515:0000131300000000
#03516:00000000000000000000001300000000
#0361b:13000013000000001300001300000000
#03617:0000001300000013
#03612:0000001300000013
#03616:00000013000000000000000000000000
#03918:1300001300130000
#0391b:0013000000001300
#03915:1300131300000000
#03912:0013
#03916:00000013
#03914:0000000000000013
#03919:0000000000000013
#04112:001c
#04118:23
#04115:23
#0411f:21
#04110:0041
#04512:1300000000130000
#0451b:1313
#04516:0013
#04517:0000000000130000
#04614:1313
#04619:00130013
#0461b:0000000000000013
#04712:1300000000130000
#04717:13
#0471b:0000001300000013
#04715:0000001300001313
#04718:0000000013130000
#0501b:1300001300130000
#05015:1300000000000013
#05018:00000013000000000000000013000000
#0541a:14
#05417:00000000000000000000000000000013
#05412:0000001400000013
#0541b:0000000013130000
#05418:00000013
#05416:00000014000000000000000000000000
#0191b:1300001313000013
#01917:00130000
#01915:13000000000000130000000000000000
#01912:00000000130000000000001300000000
#02112:00130000
#02118:00131313
#0211b:1300001300130000
#02115:13000000000000000000001300001300
#0291b:00130000
#02915:00131313
#02912:1300001300130000
#02918:13000000000000000000001300001300
#02215:00130000
#02212:1300000000000013
#0221b:1300130000130000
#02216:0000000000131400
#02217:0000000000000013
#0621a:00000000000000000000000000003333000000000000000000000000000000000000000000000000000000000000000000000000000000000000000000000000
#06219:00000000000000000000000000330000000000000000000000000000000000000000000000000000000000000000000000000000000000000000000000000000
#00155:0000005300000000
#0095b:13
#00955:0000005300000000
#02452:13
#0245b:13
#0335b:13
#03352:53
#0375b:13
#03756:53
#00458:5300001300000000
#0045b:00000063000000000000000000000000
#00452:0000001300000000
#00455:00000053000000000000000000000000
#0315b:1363
#03152:5313
#03158:00000053000000000000000000000000
#03155:00000000000000000000006300000000
#04952:1300001300000000
#04955:00000013000000000000000000000000
#04958:53
#01558:23
#02052:0023
#0205b:00000000000000000000002300000000
#02057:63
#03058:00530000
#0305b:63
#03052:00530000
#02555:53
#0255b:13
#04257:0000000000120000
#04358:53
#04352:53
#04355:0000006300000000
#0435b:0000006300000000
#04458:63
#0445b:0023005300000000
#04455:0023005300000000
#04452:63
#0485b:53
#04852:63
#05352:14
#0535a:0000001400000000
#05356:00000014000000000000000000000000
#05552:13
#04052:3300003300000000
#0405b:00000043000000000000000000000000
#00258:0000006300000000
#00355:0000005300000000
#00557:0000005300000000
#00656:0000006300000000
#00758:53000000000000000000006300000000
#00755:5363
#00752:00000000000000000000005300000000
#01052:13
#01058:0000006300000000
#0115b:13
#01156:0000005300000000
#01152:0023
#01257:5300001300000000
#01256:00000053000000000000000000000000
#01252:0000001300000000
#0135b:13
#01355:0000005300000000
#01352:0023
#0165b:0053
#01652:00000000000000000000005300000000
#01752:0063
#0175b:00000000000000000000006300000000
#02658:63
#02652:13
#03252:63
#03256:00230000
#0325b:13
#03552:13
#0355b:63
#03955:0000005300000000
#03958:53
#0395b:0023000000000000
#03952:0023
#0455b:53
#04552:5300000000530000
#0505b:1300001300000000
#05058:00000013000000000000000000000000
#05055:63
#05152:1300001300000000
#05155:00000013000000000000000000000000
#05158:53
#0545a:14
#05452:0000001400000000
#05456:00000014000000000000000000000000
#01856:53
#01852:0063
#0185b:00000000000000000000006300000000
#02758:13
#02855:13
#0195b:0053
#01952:00000000000000000000005300000000
#02152:00230000
#02155:63
#0295b:00230000
#02958:53
#02952:13
#02255:00630000
#02252:53
#0225b:00630000
#0235b:0013
#02352:13
#04158:53
#04155:53
#04153:000000000000001a
#01452:13
#01458:0000006300000000
#0145b:0023
#00852:0013
#0085b:0013
#0013b0:1300002300000000
#001380:00000033000000000000000000000000
#001351:0000001300000000
#001321:0000000000230000
#002321:1300002300000000
#002351:00000033000000000000000000000000
#002380:0000001300000000
#0023b0:0000000000230000
#0033b0:1300002300000000
#003380:00000033000000000000000000000000
#003351:0000001300000000
#003321:0000000000230000
#004381:1300002300000000
#0043b1:00000033000000000000000000000000
#004350:00000013000000000000000000000000
#004320:0000002300000000
#005370:0000001300000000
#0053b0:0000000000230000
#006360:0000001300000000
#006320:0000000000230000
#007380:13
#0073b0:00230000
#007351:13
#007321:00230000
#007351:0000000013000023
#007321:00000000000000000000003300000000
#007380:00000000000000000000001300000000
#0073b0:0000000000000023
#009350:0000001300000000
#009320:0000000000230000
#010380:0000001300000000
#0103b0:0000000000230000
#011360:0000001300230000
#011320:0053
#012370:13
#0123b0:00000023000000000000000000000000
#012361:00000013000000000000000000000000
#012321:0000002300000000
#013351:0000001300230000
#013321:0053
#014381:0000001300230000
#0143b1:0053
#015381:13
#0153b1:00230000
#0163b1:0013
#016381:00000000000000000000002300000000
#016320:00000000000000000000001300000000
#016350:0000000000000023
#017320:0013
#017350:00000000000000000000002300000000
#0173b1:00000000000000000000001300000000
#017381:0000000000000023
#018361:13
#018321:00230000
#018321:0013
#018351:00000000000000000000002300000000
#0183b0:00000000000000000000001300000000
#018380:0000000000000023
#0193b0:0013
#019380:00000000000000000000002300000000
#019321:00000000000000000000001300000000
#019351:0000000000000023
#020371:13
#0203b1:00230000
#020321:0013
#020351:00000000000000000000002300000000
#0203b0:00000000000000000000001300000000
#020380:0000000000000023
#021350:1323
#021320:00530000
#022320:1323
#022350:00330000
#0223b1:00130000
#022381:0023
#0233b1:13
#023381:00000023000000000000000000000000
#023350:00000013000000000000000000000000
#023320:0000002300000000
#023320:0013
#023350:00000000000000000000002300000000
#023381:00000000000000000000001300000000
#0233b1:0000000000000023
#025351:13
#025321:00230000
#026381:13
#0263b1:00230000
#029381:1323
#0293b1:00530000
#0303b1:1323
#030381:00330000
#030320:00130000
#030350:0023
#031320:13
#031350:00000023000000000000000000000000
#031381:00000013000000000000000000000000
#0313b1:0000002300000000
#0313b1:0013
#031381:00000000000000000000002300000000
#031350:00000000000000000000001300000000
#031320:0000000000000023
#032320:1323
#032360:00530000
#033320:13
#033350:00230000
#0333b0:0000000000000013
#034380:23
#034370:00000000000000001300002300000000
#0353b0:13
#035380:00230000
#035320:0000000000000013
#036350:23
#036360:00000000000000001300002300000000
#037360:13
#037320:00230000
#039380:13230000
#0393b0:0053000000000000
#039350:0000001300230000
#039320:0053
#041380:13
#0413b0:00230000
#041351:13
#041321:00230000
#041321:00000000001c0000
#041331:000000000000002a
#043381:13
#0433b1:00230000
#043320:13
#043350:00230000
#043350:0000001300000000
#043320:0000000000230000
#0433b1:0000001300000000
#043381:0000000000230000
#044381:13230000
#0443b1:0053000000000000
#044320:13230000
#044350:0053000000000000
#044350:0000001300000000
#044320:0000000000230000
#0443b1:0000001300000000
#044381:0000000000230000
#045321:13
#045351:00230000
#0453b0:13
#045380:00230000
#045320:0000000000130000
#045360:0000000000000023
#0453b1:0000000000000013
#046371:0023000000000000
#046320:0013000000000000
#046360:0000002300000000
#0463b1:0000001300000000
#046371:0000000000230000
#046320:0000000000130000
#046360:0000000000000023
#0483b0:13
#048380:00230000
#048321:13
#048351:00230000
#049381:13
#0493b1:00000023
#050351:13
#050321:00000023
#051381:13
#0513b1:00000023
#052381:13
#0523b1:00000023000000000000000000000000
#052350:00000013000000000000000000000000
#052320:0000002300000000
#0533b0:0000000000130000
#053380:00000023
#054320:0000000000130000
#054350:00000023
#062380:00000013000000000000000000000000
#062390:00000000000000000000000000330000000000000000000000000000000000000000000000000000000000000000000000000000000000000000000000000000
#0623a0:00000000000000000000000000003333000000000000000000000000000000000000000000000000000000000000000000000000000000000000000000000000
#0623b0:00230000
