This file was generated by Ched 2.7.0.0.
#TITLE ""
#ARTIST ""
#DESIGNER ""
#DIFFICULTY 0
#PLAYLEVEL
#SONGID ""
#WAVE ""
#WAVEOFFSET 0
#JACKET ""
#REQUEST "ticks_per_beat 480"
#00002: 4
#BPM01: 126
#00008: 01
#TIL00: ""
#HISPEED 00
#MEASUREHS 00
#00115:0000001300000013
#0011b:0000000000000013
#00118:00000013000000000000000000000000
#00515:00000013000000000000000000000000
#0051b:0000001300000000
#00512:0000000000000013
#00518:0000000000000013
#0151a:00000000000000000000001400000000
#01512:0000000000000014
#01514:0000001414000000
#01518:13000000000000140000000000000000
#01618:2400002400000013
#01612:0013
#01615:00000000000000000000001300000000
#01614:00000024000000000000000000000000
#01712:0000001300000000
#0171b:1313
#01718:00000000000000000000001300000000
#01715:0000000000000013
#01710:41
#02018:1300000013000013
#02015:0000001300000000
#0231a:1400001400000000
#02316:00000014000000000000001400000000
#02312:0000000014000014
#02418:00000000000000130000001300000000
#0241b:0000000000000013
#0241a:14
#02415:0000001313000013
#02412:00000000000000000000001300000000
#0281b:13000000000000000000001300000000
#02812:1300000000000013
#02818:0000001313000013
#02815:00000000000000130000001300000000
#03312:00000000000000000000001300000000
#03315:1300001300000000
#0331b:1313
#03318:00000000000000000000001300001300
#0331f:11
#05515:0000001313000013
#05518:13000000000000130000000000000013
#0551b:00000000000000000000001300000000
#05615:1300001300000000
#05618:00000013000000000000000013000000
#05613:00000000000000000000000000000000000000000000000000000000000000000000000000000000000000000000000000000000001300000000000000000000
#05619:00000000000000000000000000000000000000000000000000000000000000000000000000000000000000000000000000000000000000000013000000000000
#05614:00000000000000000000000000000000000000000000000000000000000000000000000000000000000000000000000000000000000000000000000000130000
#0561b:0013
#05612:0013
#00712:13000000000000000000001300000000
#00718:1300001300000000
#00715:0013
#00912:00000013000000000000130000000000
#00915:0000001300000013
#00918:00000013000000000000130000000000
#0091b:0000001300000000
#00910:41
#0311b:1313
#03112:1313
#03118:00000013000000000000000000001300
#03115:00000000000013000000001300000000
#04918:1300000000130013
#0491b:0000001300000000
#04915:00000013000000000000000000000000
#04912:00000013
#05115:00000013000000000000000000000013
#05118:1300000000130013
#0511b:0000001300000000
#05112:0000000000130000
#05110:41
#01115:13000000000013000000000000000013
#01118:00000013000000000000130000001300
#01112:00000013000000000000130000000000
#0111b:0000001300000000
#02512:1300000000000013
#02515:00000000000000130000001300000000
#02518:0000001313000013
#0251b:00000000000000000000001300000000
#02510:41
#03415:00000013000013000000000000001300
#0341b:00000013000000001300000000001300
#03412:13000000000000000000001300000000
#03418:00000000000000000000001300000000
#04214:0014000000000000
#04218:00141200
#04215:0000001300000000
#04216:0000000000120000
#0431b:0000000000000013
#04315:1300001300000000
#04318:00130000
#04412:13
#0441b:0000001300000000
#05315:0000000000000013
#0531a:0000001400000000
#05312:00000014000000000000130000000000
#0531b:0000000000000013
#05318:0000000000130000
#0571a:0013000000000000000000000000000000000000000000000000000000000000
#05712:00130000
#05715:0000000000000000000000000000000000000000000000130000000000000000
#05718:00000000000000000000000000000000000000000000000000000000001300000000000000000000000000000000000000000000000000000000000000000000
#05812:13000000000000000000001300000000000000000000000000000000000000000000000000000000000000000000000000000000000000000000000000000000
#0581b:00000000000000000000000000000000000000000000000000130000000000000000000000000000000000000000000000000000000000000000000000000000
#05815:0000000000130000
#05818:13000000000000000000001300000000000000000000000000000000000000000000000000000000000000000000000000000000000000000000000000000000
#05912:00000013000000000000000000000000000000000000000000000000000000000000000000000000000000000000000000000000000000000000000000000000
#0591b:00000000000000000000000000000000000000000000001300000000000000000000000000000000000000000000000000000000000000000000000000000000
#05915:00000000000000000000000000000000000000000000001300000000000000000000000000000000000000000000000000000013000000000000000000130000
#05918:00000013000000000000000000000000000000000000000000000000000000000000000000000000000000000000000000000000000000001300000000000000
#06015:0000000000000000000000000000001300000000001300000000000000000000
#06018:00000000000000000013000000000000
#0601b:00000000000000000000000000130000000000000000000000000000000000000000000000000000000000000000000000000000000000000000130000000000
#06118:00000000000000000000000000000000000000000000001300000000000000000000000000000000000000000000000000000000000000000000000000000000
#06115:0000000000130000000000000000000000000000000000000000000000000000
#0031b:1300000000000013
#00315:1300001300000000
#00318:00000013000000000000000000000000
#00415:00000013000000000000000000000000
#00418:13
#0041b:00000000000000000000000000333333
#00615:00000013000000000000000013000000
#00618:1300001300000000
#0061b:00000013000000000000000013000000
#00612:1300001300000000
#01018:1300001300000013
#0101b:00000013000000000000130000000000
#01015:00000013000000000000130000000000
#01012:0000001300000000
#01218:13
#0121b:00000013000000000000000000333333
#01415:13000000000013000000000000000013
#01418:00000013000000000000000000001300
#01412:00000013000000000000000000000000
#0141b:0000001300000000
#02612:0000001313000000
#02618:00000000000000130000000000001300
#02615:00000000000000000000001300000000
#0261b:13
#03812:0000000000000013
#0381b:0000000000000013
#03818:1300001300000000
#03815:0013
#04518:1313
#04512:1300000000130000
#0451b:00130000
#04515:00130000
#04715:1300000000130000
#0471b:0000001300000000
#04718:0000000013000013
#04712:00000013
#05416:14
#05412:0000001400000000
#0541a:00000014000000000000000000000000
#05418:0000000000000013
#0541b:0000000000130000
#05415:00000000000000000000130000000013
#02712:13
#0271b:1300001313000000
#02715:00000000000000130000000000001300
#02718:00000000000000000000001300000000
#01918:1313
#0191b:0000001300000000
#01912:13000000000000000000001300000000
#01915:0000001300000000
#0181b:0013
#01812:13
#01815:0000000013000013
#01818:00000000000000000000001300000000
#02115:1300000000131300
#0211b:0000000013000013
#02118:00000000000000000000001300000000
#02215:00130000
#02212:1300000000000014
#0221a:0000000000140000
#02216:00000014
#00218:1300001300000013
#00215:00000013000000000000000000000000
#00212:1300000000000013
#0131b:00000013000000000000000000000000
#01318:0000001300000013
#01315:00000013000000000000000000000000
#01312:0000001300000000
#02918:1300000000131300
#02912:0000000013000013
#02915:00000000000000000000001300000000
#03018:0000130000000013
#0301b:13
#03012:0000000000130000
#03015:00000013
#0321a:0000000000140000
#03216:00000014
#03212:2300000000000014
#0321b:23
#03210:41
#03518:1300001300000000
#03512:13000000000000000000001300000000
#0351b:00000000000000000000001300000000
#03515:0000000013000013
#03612:00000013000000000000001300001300
#03618:1300001300000013
#0361b:00000013000000000000001300000000
#03615:0013
#03715:1300000013000013
#0371b:13
#03718:0000001300000000
#03912:13
#0391b:13
#04012:2400000000130000
#04015:00000013
#04018:0000000000000013
#04016:00000024000000000000000000000000
#0401a:0000002400000000
#04112:0016
#04118:0000000000160000
#0411b:23
#0411f:21
#04110:0041
#0461b:0013000000000013
#04615:00130013
#04618:0000001300130000
#04612:0013
#04812:0000001300000000
#04815:0000000013000013
#04818:0000000000130000
#0481b:13000013
#05015:1300000000130013
#05012:0000001300000000
#05018:00000013000000000000000000000000
#0501b:00000013
#05218:13
#05215:00000013000000001300000000000000
#0521b:00000013000000001300000000000000
#0521a:00000000000000000000000000343434
#06214:00000012000000000000000000000000
#0621a:00000012000000000000000000000000
#00814:00000024000000000000000000000000
#00818:0000002400000000
#00812:00000000000000002400000000333333
#0081a:24
#00012:00000000000000000000000000333333
#00155:0000005300000000
#0245a:14
#0315b:1313
#03152:1313
#04958:13
#0495b:0000001300000000
#04955:00000013000000000000000000000000
#02552:63
#03355:63
#0335b:63
#04256:0000000000120000
#04452:63
#0445b:0000005300000000
#0535a:0000001400000000
#05352:00000014000000000000000000000000
#05356:14
#00452:0000001300000000
#00455:00000053000000000000000000000000
#0055b:0000005300000000
#00752:53000000000000000000006300000000
#00758:53
#01058:13
#01258:5300001300000000
#0125b:00000053000000000000000000000000
#01455:1300005300000000
#0145b:0000005300000000
#04355:0000006300000000
#04552:0000000000530000
#05456:14
#05452:0000001400000000
#0545a:00000014000000000000000000000000
#0275b:13
#02752:13
#02058:6353
#01952:00000000000000000000005300000000
#02155:63
#02255:00630000
#02252:53
#0235a:14
#02352:0014
#00258:0000006300000000
#00355:0000005300000000
#00955:13
#01155:13
#01352:0000006300000000
#01358:1300006300000000
#01558:53
#0175b:53
#01852:63
#0265b:53
#0285b:13
#02852:13
#02958:53
#03058:00530000
#0305b:63
#03558:53
#03552:53
#0375b:13
#03755:1353
#03858:63
#03855:0053
#0395b:53
#03952:53
#04052:14
#04056:00000014000000000000000000000000
#0405a:0000001400000000
#04158:0000000000560014
#0415b:53
#0485b:53
#05055:13
#05052:0000001300000000
#05058:00000013000000000000000000000000
#05158:13
#0515b:0000001300000000
#05155:00000013000000000000000000000000
#0525b:00000053000000000000000000000000
#05255:00000053000000000000000000000000
#05558:53
#03252:13
#0325b:13
#00852:0014
#000320:00000000000000000000000013333333
#001350:23
#001350:0000001300000000
#001320:0000000000230000
#002380:0000001300000000
#0023b0:0000000000230000
#003350:0000001300000000
#003320:0000000000230000
#004350:00000013000000000000000000000000
#004320:0000002300000000
#0043b0:00000000000000000000000013333333
#005380:23
#0053b0:0000001300000000
#005380:0000000000230000
#007320:13
#007350:00230000
#007381:13
#0073b1:00230000
#007321:00000000000000000000001300000000
#007351:0000000000000023
#008321:00000000000000000000000013333333
#009351:23
#012381:1300002300000000
#0123b1:00000033000000000000000000000000
#0123b1:00000000000000000000000013333333
#013381:23
#013321:0000001300000000
#013351:0000000000230000
#013380:0000001300000000
#0133b0:0000000000230000
#0143b0:0000001300000000
#014380:0000000000230000
#014351:0000001300000000
#014321:0000000000230000
#015381:13
#0153b1:00230000
#0173b1:13
#017381:00230000
#018321:13
#018351:00230000
#019321:00000000000000000000001300000000
#019351:0000000000000023
#020381:13
#0203b1:00230000
#020381:0013
#0203b1:00000000000000000000002300000000
#021351:13
#021321:0000002300000000
#022321:1323
#022351:00330000
#025321:13
#025351:00230000
#0263b1:13
#026381:00230000
#029381:13
#0293b1:0000002300000000
#0303b1:1323
#030381:00330000
#033351:13
#033321:00230000
#0333b0:13
#033380:00230000
#035380:13
#0353b0:00230000
#035321:13
#035351:00230000
#037351:0013
#037321:00000000000000000000002300000000
#038381:13
#0383b1:00000023000000000000000000000000
#038351:0013
#038321:00000000000000000000002300000000
#0393b1:13
#039381:00000023
#039320:13
#039350:00000023
#0413b0:13
#041380:00230000
#041380:0000000000160024
#043350:0000001300000000
#043320:0000000000230000
#044320:13
#044350:00230000
#0443b0:0000001300000000
#044380:0000000000230000
#045320:0000000000130000
#045350:0000000000000023
#0483b0:13
#048380:00230000
#052350:00000013000000000000000000000000
#052320:0000002300000000
#0523b1:00000013000000000000000000000000
#052381:0000002300000000
#0523a1:00000000000000000000000014343434
#053361:24
#055381:13
#0553b1:00230000
