This file was generated by Ched 2.7.0.0.
#TITLE ""
#ARTIST ""
#DESIGNER ""
#DIFFICULTY 0
#PLAYLEVEL
#SONGID ""
#WAVE ""
#WAVEOFFSET 0
#JACKET ""
#REQUEST "ticks_per_beat 480"
#00002: 4
#BPM01: 126
#00008: 01
#TIL00: ""
#HISPEED 00
#MEASUREHS 00
#0011b:1300000000000013
#00118:00000013000000000000000000000000
#00117:0000001300000000
#00112:0000000000130013
#00116:00001214
#00015:00000000000000000000000013000013
#00012:00000000000000000000000000130000
#00018:0000000000000013
#00312:0000000000130012
#00318:00000013000000000000000000000012
#0031b:13
#00317:0000001300000000
#00316:0012
#00417:00000013
#00415:13000000000000000000000000130000
#00419:0000000000000013
#00413:00000000000000000000000000000013
#0041b:13
#00418:00000013000000000000000000000000
#00412:00000013000000000000000000000000
#00517:00000013000000000000000000000000
#00518:0000001300130013
#0051b:13131313
#00512:13
#0051a:00000000000000000000000000120000
#00616:00000013000000000000000000000000
#00615:0000001300130013
#0061b:13
#00612:00131313
#00614:00000000000000000000000000120000
#00712:13130000
#00718:0000001300000000
#00715:00000000000000130000000000000000
#0071b:00131300
#00719:00000000000000000000001300000000
#00717:0000000000000013
#00812:00001300000000002400000000130000
#0081b:00000000001300000000000013000000
#00818:0000000000000013
#00815:0000000000000000000000000000000000000000000000330000000000001300
#00819:24000023000023000000000000000000
#00813:2400000000000000000000000000000000000000003300000000000000000000
#00814:00000023000023000000003300000000
#0081a:0024
#0091b:13000013
#00915:00130000000000000000000000130013
#00912:00131200
#00918:00000013000000000000000000001300
#00914:0000001200120000
#00910:41
#0111b:1300000000000013
#01112:00130000000012000000120000000013
#01115:00000000130000000000000000130000
#01114:0012
#01118:00000013000000000000000013000000
#01212:00000000000000000013000013000000
#0121b:00000000000000001300000000130000
#01215:13001300000000130000001300001300
#01218:00000000001313000000130000000013
#0151b:00000000000000000000001300000000
#01512:0000000000000013
#01515:13000013
#01518:13000000000000001400000000000013
#01514:0000001400000000
#01516:00000000000000140000000000000000
#01615:0013000000000000
#0161b:23000023000023000000000000001300
#01618:00000000001300000000000000000000
#01612:23000023000000000000000000000000
#01714:0000001300000000
#01716:00130000
#01717:1313
#01712:2300000000000013
#01710:41
#02012:1300130013000013
#0201b:13000000000000001300001300000000
#02015:0000001300001300
#02018:00000000001300130000000000000013
#02017:0013000000000000
#02115:1300001313001300
#02112:0000000000130013
#0211b:1300001300130000
#02118:00131313
#02218:13
#0221b:00131300
#02216:0000000000140014
#02212:13000015
#02219:00000015
#02217:00130000
#02312:13000013
#02316:0000001400000014
#0231b:00131300
#02414:13
#02415:00000000130013000000001313000000
#02418:00000000001300130000000000130013
#02412:0013000014000013
#02419:13
#0241b:00000013000000000000000013000000
#0241a:0014
#02515:13000000000013000000001300000013
#02512:00000000000000001300000000130000
#02518:00000013130000001300130000001300
#0251b:13000000000000130000000013000000
#02510:41
#02718:00000000130013000000001313000013
#02715:13000013000000130000000000001300
#02712:00131300
#0271b:1313
#02818:00000000000013000000001300000000
#02812:1300000013000013
#0281b:1300000013000013
#02815:00000013130000130000000013000000
#02912:1300001300000013
#02915:0013
#0291b:13000000000000000000001300000000
#02918:00000013130000130000000000000000
#02916:0000000000130000
#02917:00000000000000000000000000130000
#03012:0000130000130000
#03014:00000013
#03016:1300000000000013
#03017:0000130000130000
#03019:00000013
#0301b:1300000000000013
#03115:0000001300000000
#0311b:13000013000000001300000013000000
#03112:13000000130000001300001300000000
#03118:0000000000000013
#0331b:13001313
#03315:00000000000000130000130000001300
#03318:00000013130013000000001300000013
#03312:1313
#0331f:11
#03415:13001600160000130000160016001300
#03418:0000001313000013
#03412:00000013000000001300000000000000
#0341b:13000000000000000000001300000000
#03515:00000013130016130000161300001613
#0351b:13001313
#03512:13000000000000000013000000130000
#03618:00001313000013001300000000000000
#03612:00000013000000001300000000000000
#03615:13000000000000000000131300001300
#0361b:13000000000000000000001300000000
#0371b:13000000130000000000001300000000
#03715:13000000000000130000160016001300
#03718:00000013000013001300000000000013
#03712:0013
#03815:13001600160000130000000000000000
#03812:00000013000000001300000000001300
#0381b:13000000000000000013001300000000
#03818:0000001313000000
#03816:00000000000000000000131300000000
#0391b:0000131300001300
#03918:00000013000000130016000000001300
#03915:13001300000000000000001300000013
#03912:00000000130000001600130000130000
#0401b:00000023000000000000130000000000
#04014:00000013
#04017:0000000000000017
#04015:00001616001616000000000000000000
#04018:13
#04016:0000000000130000
#04019:00000015
#04012:2300002300000013
#04715:00000000000013000000001600160000
#04712:1200000013001313
#0471b:0000001300130013
#04718:0013
#04812:0013001300001300
#04816:00000000000000140000130000000000
#0481b:00001300000000000000000000130000
#04815:1300000000000013
#04814:0013
#04818:13000000000000000014000000000013
#0481a:00000000000000000000001400000000
#05515:0000001300000000
#05517:00000000000000130000001300000000
#05519:0013
#05512:13000000000000000000001300000000
#05516:0000130000000013
#0551b:00000000130000000000000000000013
#05616:13000000000000000000000000000000000000000000000013000000000000000000000000000000000000000000000000000000001300000000000000000000
#0561b:00000000001300001300000013000000
#05619:00000000000000000000000000000000000000000000000000000000000000000000000000000000000000000000000000000000000000000013000000000000
#05614:00000000000000000000000000000000000000000000000000000000000000000000000000000000000000000000000000000000000000000000000000130000
#05617:00000013000000000000000000000000
#05612:0013000013000000
#00212:1300000000000013
#00215:00000013000000000000000000000000
#00216:0000001300001400
#0021b:0000000000130013
#00218:0012
#01018:00130000000000000000000000130013
#0101b:00130000
#01012:13000013
#0101a:0000001200120000
#0101c:0012
#01015:00000013000000000000000000001300
#01312:13000013
#0131b:00000013000000000000000000000000
#01318:00130000000000000000000000130000
#01315:0000130000000013
#0131a:0000001200120000
#0131c:0012
#01412:00000013000000001200000000001300
#0141b:13000000000000000000000000000013
#01418:00130013
#01415:00130000000000000000000013000000
#01414:0000001200120000
#03216:0000121200000000
#03218:00000000001200000000000000000000
#0321b:0000000000130000
#03217:00000000000000000000001300001300
#03219:24000013
#03215:00000000000000000000000000130000
#03213:24000000000000000000000000000013
#03210:41
#04416:0000000000001313
#0441b:13000000000013000000000000130000
#04412:12121200
#04417:0013000000000000
#04414:0012001200120000
#04912:13000000000013000000130000000013
#0491b:00130000000000000000000000000000
#04918:00000000130000130013000000130000
#04915:00000013000000001300000013001300
#0521b:00000000000013000013000000130000
#05212:1316000000130013
#05218:00000000001600000000001300000013
#05215:00001313
#0511b:00130000000000000000130000001300
#05115:00000013000000001300000000000013
#05118:00000000130000130000000013000000
#05112:1300001300000000
#05110:41
#04112:2700001316160000
#04117:00130000
#0411b:2300001300000000
#04118:0000000016160000
#0411f:21
#04110:0041
#04219:0015000000000000
#0421a:00140000
#0421b:0000001300000000
#0421c:0000000012120000
#04212:0015141312120000
#04318:13
#04312:1212
#04314:00001200001412000000120000141200
#04316:00120012
#04319:00000013
#0431a:0000000000000013
#0431b:0000001300000000
#04512:1200001200000000
#04516:0012000000001200
#04514:0000120000120012
#0451c:1200000012000012
#0451a:0012001200001200
#04518:0000120000120000
#04612:1200001200000000
#04616:0012000000001200
#04614:0000120000120012
#0461a:0012001200001200
#04618:0000120000120000
#0461c:0000000012000012
#0501b:13000000000013000000130000000013
#05012:00130000000000000000000000000000
#05015:00000000130000130013000000130000
#05018:00000013000000001300000013001300
#05312:14000000000000000000130000000013
#0531b:00130000000000130000000000000000
#05318:00000000130000000013000000130000
#05315:0000000013001313
#05316:0000001400000000
#05314:00000014000000000000000000000000
#0541a:14
#05412:00130000000000130000000000000000
#05415:00000000130000000013000000001300
#05418:00000014000000001300000013000013
#05416:0000001400000000
#0541b:0000000000130000
#05717:0013000000000000000000000000000000000000000000000000000000000000
#05718:00120000
#05714:00000000000000000000000000000000000000000000000000000000001200000000000000000000000000000000000000000000000000000000000000000000
#05716:0000000000000000000000000000000000000000000000120000000000000000
#05712:00120000
#0571a:00000000000000000000000000000000000000000000000000000000001200000000000000000000000000000000000000000000000000000000000000000000
#0571c:0000000000000000000000000000000000000000000000120000000000000000
#05812:12000000000000000000001200000000000000000000000000000000000000000000000000000000120000000000000000000000000000000000000000000000
#0581c:00000000000000000000000000000000000000000000000000120000000000000000000000000000000000000000000000000000000000000000000000000000
#05818:12000000000000000000001200000000000000000000000000000000000000000000000000000000120000000000000000000000000000000000000000000000
#05816:00000000000000000000000000000000000000000000000000120000000000000000000000000000000000000000000000000000000000000000000000000000
#05914:00000012000000000000000000000000000000000000000000000000000000000000000000000000000000000000000000000013000000000000000000000000
#0591a:00000000000000000000000000000000000000000000001200000000000000000000000000000000000000000000000000000000000000000000000000130000
#05917:0000000000000013
#05918:00000012000000000000000000000000000000000000000000000000000000000000000000000000000000000000000000000000000000000000000000000000
#05916:00000000000000000000000000000000000000000000001200000000000000000000000000000000000000000000000000000000000000000000000000000000
#06012:00000000000000000000000000120000000000000000000000000000000000000000000000000000000000000000000000000000000000000000120000000000
#06015:0000000000000000000000000000001300000000001300000000000000000000
#06018:00000000000000000000000000120000000000000000000000000000000000000000000013000000000000000000000000000000000000000000120000000000
#0611c:0000000000120000000000000000000000000000000000000000000000000000
#06116:00000000000000000000000000000000000000000000001200000000000000000000000000000000000000000000000000000000000000000000000000000000
#06118:0000000000120000000000000000000000000000000000000000000000000000
#06112:00000000000000000000000000000000000000000000001200000000000000000000000000000000000000000000000000000000000000000000000000000000
#01819:0000001300000000
#01817:00130000
#01816:1313
#0181b:1300000000000013
#01912:1300001300000000
#01917:0000001300000000
#0191b:13131300
#01916:0013000000000013
#02618:13000000000013000000001300000013
#0261b:00000000000000001300000000130000
#02615:00000013130000001300130000001300
#02612:13000000000000130000000013000000
#06219:00000000000000000000000000320000000000000000000000000000000000000000000000000000000000000000000000000000000000000000000000000000
#0621a:0000000000000032000000000000000000000000000000000000000000000000
#0621b:00000000000000000000000000000032000000000000000000000000000000000000000000000000000000000000000000000000000000000000000000000000
#00157:0000006300000000
#0015b:13
#0095b:13
#00958:00000013000000000000000000000000
#00954:0000001200000000
#0115b:13
#01158:00000013000000000000000000000000
#01152:0000001200000000
#02454:13
#02459:13
#03052:0000530000130000
#03056:6300000000000013
#03059:00000013
#03057:00530000
#0305b:63
#0335b:13
#03352:53
#03652:00000023000000001300000000000000
#03655:63
#03658:0063
#0365b:13000000000000000000002300000000
#0375b:13
#03755:53000036
#00256:0000005300000000
#00252:13
#00357:0000006300000000
#0035b:13
#00455:6300001300000000
#0045b:6300001300000000
#00458:00000053000000000000000000000000
#00452:00000053000000000000000000000000
#0065b:63
#00552:63
#01052:13
#01055:00000013000000000000000000000000
#0105a:0000001200000000
#01352:13
#0135b:00000013000000000000000000000000
#0135a:0000001200000000
#0315b:13000053000000006300000000000000
#03152:53000000000000001300006300000000
#04952:1300001300000000
#04955:00000013000000000000000000000000
#01558:23
#01555:23
#01757:23
#0205b:53000000000000000000002300000000
#02052:0023
#02057:0023000000000000
#02155:63
#0215b:0000000000630000
#02158:00000023
#02252:53
#02257:00530000
#02555:53
#0255b:13
#02952:63
#0295b:13
#03552:13
#0355b:63
#03955:13
#04158:0000000000560000
#04152:0000000000560015
#04159:0000000000000015
#0425c:0000000000120000
#04252:0000000000120000
#04358:53
#0435b:0000005300000000
#0445b:5300005300000000
#04457:0023000000000000
#04552:5200002200000000
#04556:0022000000000000
#04554:00520000
#0455c:0000000062000022
#04558:0000000000220000
#0455a:00000062
#04652:5200002200000000
#04656:0022000000000000
#04654:00520000
#0465c:0000000062000022
#04658:0000000000220000
#0465a:00000062
#04858:53
#0485b:0023000000000000
#04855:63
#04852:0023000000000000
#05152:1300001300000000
#05155:00000013000000000000000000000000
#0515b:0000000000130000
#0505b:1300001300000000
#05058:00000013000000000000000000000000
#05352:14
#05356:0000001400000000
#05354:00000014000000000000000000000000
#0545a:14
#05456:0000001400000000
#05458:00000014000000000000000000000000
#05552:13
#04052:3300003300000000
#0405b:00000043000000000000000000000000
#03253:14
#03259:14
#0145b:13
#01452:00000013000000000000000000000000
#01454:0000001200000000
#0385b:00000000000000000000005300000000
#03855:00460000
#02752:0063
#02755:13
#0275b:13
#0085a:0014
#00852:0014
#03455:00460036
#01856:23
#01952:63
#01956:0023000000000000
#02652:13
#02658:63
#01258:0000001300000000
#02352:13
#0235b:0013
#0285b:53
#02852:13
#001320:1300002300000000
#001350:00000033000000000000000000000000
#001371:0000001300000000
#0013b1:0000000000230000
#0023b1:1300002300000000
#002381:00000033000000000000000000000000
#002360:0000001300000000
#002320:0000000000230000
#003320:1300002300000000
#003350:00000033000000000000000000000000
#003371:0000001300000000
#0033b1:0000000000230000
#004351:1300002300000000
#004321:00000033000000000000000000000000
#0043b0:1300002300000000
#004380:00000033000000000000000000000000
#005320:13
#006360:22
#0063b1:13
#007381:22
#007321:0000000013000023
#007351:00000000000000000000003300000000
#008321:0000000000130000
#008331:0000000000000000000000000000000000000000003300000000000000000000
#008341:00000000000000000000003300000000
#008351:0000000000000000000000000000000000000000000000330000000000000000
#008361:00000023
#009371:0000001300230000
#009391:00000000000000330033000000000000
#0093b1:0033
#010361:0000001300230000
#010341:00000000000000330033000000000000
#010321:0033
#0113b1:0000001300230000
#011391:00000000000000330033000000000000
#011371:0033
#012381:13
#0123b1:00000023000000000000000000000000
#012320:00000013000000000000000000000000
#012350:0000002300000000
#013360:0000001300230000
#013340:00000000000000330033000000000000
#013320:0033
#014370:0000001300230000
#014390:00000000000000330033000000000000
#0143b0:0033
#015380:13
#0153b0:00230000
#015351:13
#015321:00230000
#016321:0000001300000000
#016351:0023
#0163b0:0013
#016370:00000000000000000000002300000000
#016321:00000000000000000000001300000000
#016361:0000000000000023
#017371:13
#0173b1:00230000
#017321:0013
#017361:00000000000000000000002300000000
#0173b0:00000000000000000000001300000000
#017370:0000000000000023
#018360:13
#018320:00230000
#0183b0:0013
#018370:00000000000000000000002300000000
#018321:00000000000000000000001300000000
#018361:0000000000000023
#019321:13230000
#019361:0053000000000000
#019361:0013
#019321:00000000000000000000002300000000
#019370:00000000000000000000001300000000
#0193b0:0000000000000023
#0203b0:13230000
#020370:0053000000000000
#020320:0013
#020350:00000000000000000000002300000000
#0203b1:00000000000000000000001300000000
#020381:0000000000000023
#021351:13
#021321:00230000
#0213b1:0000000000130023
#021381:00000053
#022321:1323
#022371:00330000
#0233b1:13
#023381:00000023000000000000000000000000
#023350:00000013000000000000000000000000
#023320:0000002300000000
#023320:0013
#023350:00000000000000000000002300000000
#023381:00000000000000000000001300000000
#0233b1:0000000000000023
#025351:13
#025321:00230000
#026381:13
#0263b1:00230000
#027321:0013
#027351:00000023
#0283b1:13
#028381:00230000
#029321:13
#029351:00230000
#0303b1:1323
#030371:00330000
#030360:1323
#030320:00330000
#031320:13
#031360:00000023000000000000000000000000
#0313b1:00000013000000000000000000000000
#031381:0000002300000000
#0313b1:0013
#031371:00000000000000000000002300000000
#031320:00000000000000000000001300000000
#031350:0000000000000023
#033320:13
#033350:00230000
#0353b0:13
#035380:00230000
#036350:1300002300000000
#036320:00000033000000000000000000000000
#036380:0000000013000023
#0363b0:00000000000000000000003300000000
#037350:13
#037320:00230000
#0383b0:00000000000000000000001300000000
#038380:0000000000000033
#039380:23
#041320:17230000
#041380:0000000000160000
#041390:0000000000000025
#041321:0000000000160025
#043381:13
#0433b1:00230000
#0433b1:0000001300000000
#043381:0000000000230000
#0443b1:13230000
#044371:0053000000000000
#0443b1:0000001300000000
#044381:0000000000230000
#045321:1200005200000000
#045361:0052000022000000
#045341:00320000
#0453c0:0000000012000052
#045380:0000000000520000
#0453a0:00000032
#046380:22
#046321:1200005200000000
#046361:0052000022000000
#046341:00320000
#0463c0:0000000012000052
#046380:0000000000520000
#0463a0:00000032
#047380:22
#048380:13230000
#0483b0:0053000000000000
#048351:13230000
#048321:0053000000000000
#0493b1:0000000000130000
#049381:00000023
#050321:0000000000130000
#050351:00000023
#051321:0000000000130023
#051351:00000033
#052381:13
#0523b1:00000023000000000000000000000000
#052350:00000013000000000000000000000000
#052320:0000002300000000
#0533b0:0000000000130000
#053380:00000023
#054320:0000000000130000
#054350:00000023
#062380:00000012000000000000000000000000
#062390:00000000000000000000000000320000000000000000000000000000000000000000000000000000000000000000000000000000000000000000000000000000
#0623a0:0000000000000032000000000000000000000000000000000000000000000000
#0623b0:00000000000000000000000000000032000000000000000000000000000000000000000000000000000000000000000000000000000000000000000000000000
#0623c0:00220000
