This file was generated by Ched 2.7.0.0.
#TITLE ""
#ARTIST ""
#DESIGNER ""
#DIFFICULTY 0
#PLAYLEVEL
#SONGID ""
#WAVE ""
#WAVEOFFSET 0
#JACKET ""
#REQUEST "ticks_per_beat 480"
#00002: 4
#BPM01: 126
#00008: 01
#TIL00: ""
#HISPEED 00
#MEASUREHS 00
#04118:0014
#04114:00140000
#04112:00000014
#0411a:24
#0411f:21
#04110:0041
#04218:14
#04214:00140000
#0421a:0014
#0051a:1414
#00612:1414
#00718:1414
#01712:0014
#0171a:24
#01710:41
#0191a:14
#01912:0014
#0011a:14
#00114:14
#00212:14
#00218:14
#0031a:14
#00314:14
#00418:14
#00412:14
#01818:14
#01814:0014
#02018:14
#0341a:0014
#0371a:14
#03717:0014
#03612:0014
#03913:14141414
#03914:0014000000140000
#03912:0000001400000014
#04312:14
#0431a:00000014
#04318:00140000
#04314:0014
#04414:14
#04418:00140000
#04412:0014
#04912:14
#0491a:14
#05518:0014
#0551a:14
#05512:00140000
#05514:00000014
#05619:0014
#0561a:14
#05612:00140000
#05613:0014
#00812:14
#0081a:14
#00918:0014
#00914:00140000
#0091a:24
#00910:41
#01018:00140000
#01014:0014
#01012:14
#0111a:14
#01114:00140000
#01118:0014
#01112:00000014
#01314:0014
#01312:14
#01318:00140000
#0141a:14
#01418:0014
#01414:00140000
#0381a:0014
#05118:14
#05114:00140000
#0511a:0014
#05112:00000014
#05110:41
#05218:14
#05214:00140000
#05213:0014
#05219:0014
#04618:14001414
#04614:00140000
#04814:14001414
#04818:00140000
#01218:14
#01214:00140000
#0121a:0014
#01512:14
#01518:00140000
#01514:0014
#0151a:00000014
#01614:14
#01618:00140000
#01612:0014
#0251a:0014
#02512:14
#02510:41
#02712:14
#0271a:0014
#02614:14
#02618:0014
#02814:14
#03012:14
#02917:14
#03215:14
#03210:41
#0311a:14
#0331f:11
#04013:24
#02113:0034
#02318:0034
#0375a:64
#03757:0024
#03953:54645464
#03954:0024000000240000
#03952:0000002400000024
#04952:54
#0495a:64
#0095a:14
#04053:14
#0425a:0014
#04452:0014
#05054:14
#05058:14
#01352:14
#03052:54
#02957:54
#03255:64
#0315a:64
#021350:14
#021330:0034
#022320:24
#0233a0:14
#023380:0034
#024370:24
#029370:14
#0293a0:0024
#030320:14
#030350:0024
#0313a0:14
#031370:0024
#032350:14
#032320:0024
#0333a0:14
#033370:0034
#0343a0:24
#035320:14
#035350:0034
#036320:24
#0373a0:14
#037370:0034
#0383a0:24
#039330:14343434
#039340:0054000000540000
#039320:0000005400000054
#040330:24
#0453a0:14
#045380:00240000
#045340:0014
#045320:00000024
#047320:14
#047340:00240000
#047380:0014
#0473a0:00000024
#049320:14
#050340:24
#0493a1:14
#050381:24
#053371:14
#0533a1:00240000
#053321:0014
#053351:00000024
#0543a1:14
#054371:00240000
#054351:0014
#054321:00000024
#057371:14
#0583a1:0034000000000000
#059371:0000000000000000000000340000000000000000000000000000000000000000
#060391:0000000000340000
#061371:00000000003400000000000000000000
#0623a1:00240000
