This file was generated by Ched 2.6.2.0.
#TITLE ""
#ARTIST ""
#DESIGNER ""
#DIFFICULTY 0
#PLAYLEVEL
#SONGID ""
#WAVE ""
#WAVEOFFSET 0
#JACKET ""
#REQUEST "ticks_per_beat 480"
#00002: 4
#BPM01: 127
#00008: 01
#TIL00: ""
#HISPEED 00
#MEASUREHS 00
#00319:14
#00213:14
#0051a:14
#00510:41
#00614:14
#0071a:14
#02912:0016
#02918:26
#02910:41
#05012:0016
#05018:26
#0501f:21
#05118:1616
#0411f:11
#04113:14
#00119:14
#00413:14
#00918:14
#01012:14
#01118:14
#0131a:14
#01310:41
#01414:14
#01518:14
#01612:14
#0171a:14
#01814:14
#01918:14
#02012:14
#03112:16
#03118:0016
#03212:16
#03318:0016
#03312:26
#03518:16
#03512:0016
#03618:16
#03610:41
#03719:14
#03813:14
#04219:14
#04519:14
#04613:14
#04719:14
#04813:14
#04919:14
#05212:16
#05218:0016
#05210:41
#05418:0016
#05412:26
#05512:1616
#05618:16
#05612:0016
#05819:14
#05913:14
#06019:14
#06113:14
#06613:14
#06619:14
#00814:14
#01212:14
#03919:14
#04019:14
#04313:14
#04413:14
#05312:16
#05718:16
#02110:41
#021390:14
#022390:24
#023330:14
#024330:24
#025390:14
#026390:24
#027330:14
#028330:24
#030380:1626
#034320:1626
#062390:14
#063390:24
#064330:14
#065330:24
