This file was generated by Ched 2.6.2.0.
#TITLE ""
#ARTIST ""
#DESIGNER ""
#DIFFICULTY 0
#PLAYLEVEL
#SONGID ""
#WAVE ""
#WAVEOFFSET 0
#JACKET ""
#REQUEST "ticks_per_beat 480"
#00002: 4
#BPM01: 127
#00008: 01
#TIL00: ""
#HISPEED 00
#MEASUREHS 00
#00118:00000000000000000012000000120000
#0011c:12
#00119:0012000000000000
#00115:00120000
#00112:0000001200000000
#00114:0012
#00116:0000000000120012
#0011a:00000000000000000000001200000000
#00218:12
#0021b:0012001200000000
#00215:00000000120000000000121200000000
#00219:0012
#00213:0012001200000000
#00212:0000000000000012
#0221a:0013
#02218:00000000001300000000130000000000
#02212:00000013000000000000001300000000
#02214:00000000000000000013000000000000
#0221b:0013000000000013
#02216:00000000000000130000000000000000
#02215:13
#04515:00130000001300000013000000000000
#04518:0013130000130000
#04512:00000013000000130000000000000000
#0451b:2300000023000013
#04818:000000130000000000000000130000000000000000001600
#04815:00130000000000130000000016000000
#0481b:23000000001300000000000000000000
#04812:000000000000001600000000
#00019:0000000000001212
#00015:000000000000000012000000000000000000000000000000000000000000000000000000000000120000000000120000
#00013:12
#00018:001200001200000000000000
#00014:000000000012000000000000
#00016:0012
#0001a:00120000
#0031a:1200000000000012
#00316:00001200000000120000001200000000
#00318:00000012000000000012000000000000
#00312:00000000001200000012000000000000
#0031c:00000000000000120000001200000000
#00419:0012000000000000
#00414:00120000
#00415:12
#00515:2313000000000000
#00518:00130000
#00512:0000131300130000
#0051b:2300000013000013
#00517:00000000000000000000001300000000
#00516:00000000000000000000000000130000
#00510:41
#01314:0000130013000013
#0131b:0000130000000013
#01318:0000001300000000
#01317:00000000000000000013000000000000
#0131a:00000000000000000000001400000000
#01316:0013000000000000
#01312:23000000000000000000001400000000
#01319:23
#01310:41
#0161b:1313
#01618:00000013
#01612:1300000000000013
#01615:0000000000130000
#01616:00001400001400000000000000000000
#01613:00000013000000000000000000000000
#0161a:0000001300000000
#00612:1300000013000013
#00618:1313000000000000
#00615:00130000
#0061b:0000131300130000
#00616:00000000000000000000001300000000
#00617:00000000000000000000000000130000
#0071b:1313000000000013
#00718:0000131300130000
#00712:00000000130000000000001300000000
#00715:13000000000000001300000000130000
#00915:00000000000000001300000000130000
#00918:00000000000000000000001300000000
#00912:0000001300130013
#0091b:0013000013000013
#0311a:00000000000000000023130000000000
#0311b:13000000001300000000000000001300
#03118:0013000000000000
#03115:13000013000000230000000000001300
#03112:00000000001300000000000000000000
#03114:0015
#03215:0013001300000013
#0321b:00000000000000001300000000130000
#03218:13000000130000000000130000000013
#03212:00000000000000000000001300000000
#03717:00001300000000000000000000130000
#03719:00130000
#0371b:2300001300130000
#03712:2313000013000013
#03716:00000000000000000000001300000000
#03915:0000000000000013
#0391b:0000001300130000
#03917:0013000000000000
#03919:00130000
#03912:0013000013000000
#03916:00000000000000000000001300000000
#04012:1313
#0401b:00131300
#04018:00000000000013000000001300130013
#04015:0000000000130013
#01112:0000130013000013
#01115:00000000000013000000001300130000
#0111b:2300000000130000
#01118:0013000013000013
#03816:00001300000000000000000000130000
#03814:00130000
#03812:0000001300130000
#03817:00000000000000000000001300000000
#0381b:0013000013000013
#04112:23001300000000001300001300000000
#04114:00130000
#04116:00000000000013000000000000130000
#04117:0013000000130000
#0411b:2300000000000013
#0411f:11
#04412:00131300
#0441b:1313
#04415:00000000000013000000001300130013
#04418:0000000000130013
#04618:00130000000000000000130000001300
#04615:00001300000000130000000013000000
#04612:23000000001300000000130000001300
#0461b:00000013
#04715:00130000000000000000130000000000
#04718:00001300000000000013000000000000
#0471b:23000000001300130000000000000000
#04712:0000000023000013
#01413:0013000000000000
#01419:0000001300000000
#01412:0000001300000014
#0141a:0013000000000014
#01416:00130000
#01417:13
#01418:00000000000000000000001300000000
#01912:00000000130000000000001300000000
#01918:0000001313000000
#01915:00000000000000130013000000000000
#01914:0000000000000013
#01919:0000000000000013
#01916:0013000000000000
#0191a:13
#0191b:00000000000000000000001300000000
#02012:1313
#02016:00001400001400000000000000000000
#0201a:00000013000000000000000000000000
#02013:0000001300000000
#0201b:1300000000000013
#02015:00000013
#02018:0000000000130000
#0181a:0013000000000014
#01812:0000000000000014
#01814:0000001300000000
#0181b:0000001300000000
#01813:0013000000000000
#01817:00130000
#01816:13
#01815:00000000000000000000001300000000
#02415:00000000001300000000130000000000
#02418:13000000000000130000000013000000
#0241b:00000013000000000000000000001300
#02412:0013000013000000
#02514:0013000000000000
#0251b:00000013000000000000001300001300
#02517:00000000000000000013000000000000
#02512:23000000000000000013000000000013
#02519:00130000000013000000000000000000
#02516:00000000130000130000001300000000
#02618:13000013000000000000000000000000
#02615:0013000000130000
#02612:00000000001300000000000000001300
#02613:0013
#0261b:00000000001300000000001300000000
#02619:00000000000000000013000000000000
#02617:00000000000000130000000000000000
#0281b:00000000001300001300000000000000
#02818:0013000000130000
#02815:13000013000000130000000013000000
#02812:00000000001300000000000000001300
#02918:0013000013000013
#0291b:2300130000130000
#02912:13000000130000000000001300000000
#02915:00000000000013000013000000130000
#02910:41
#0301b:13131300
#03015:00001300000000000000121200000000
#03018:0000001300000013
#03012:2300130013000013
#03019:00000000000000000000121200000000
#0351b:00000000001300130000001300000000
#0351b:00000000001300000000000000000000
#03512:13000000001300000013000000001300
#03512:00000000001300000000000000000000
#03516:00000000000000140014001400000000
#03518:13000013000000000000000000001300
#03515:0013000000000000
#05213:0014
#0521a:00000000000000220000000000001400
#05215:1300000000000014
#0521b:0013000000000000
#05212:00000013000000000000000000000000
#05219:00000000001300001400000000000000
#05214:00000000001300220000000000000000
#05210:41
#05317:14140000
#05315:00001400000014000000001300130013
#05312:0013
#05318:0000000000130013
#0501b:2300000013000013
#05018:0023230000130000
#05012:00000000230000000000001300000000
#05016:00000000000000000000000000140000
#05015:23000000000023000013000000000000
#0501f:21
#0511b:00131300
#05118:13000000000013000000001300001300
#05112:1313
#05115:0013130000130000
#0581b:23001300000013000000000000130000
#05812:23131300
#05815:0013000000130013
#05818:00000000130000000000001300000000
#0611b:0013001300000000
#06112:13131300
#06116:0013001300000000
#06118:00000000000000000000131300000000
#06115:00000000000000000000000000131300
#06117:13130000
#06016:0000000000000013
#0601b:0013001300000013
#06012:00131300
#06015:0013000000130000
#06018:00000000130000000000001300000000
#0561b:00000013000000130000001300000000
#05616:00000000000000140014001400000000
#05612:00001300000000000013000000001400
#05617:0000000000000014
#05618:13
#05614:00000000001300000000000000000000
#05619:00000000001300000000000000000000
#06212:23001300000000001300000000130000
#06215:00130000
#0621b:2300130000130013
#06216:00000000000000000000001300000000
#06218:0013000000000000
#06217:0013
#06512:0013001300001300
#06516:14140000
#0651b:0013001300001300
#06515:00000000000000000013000000000000
#06518:00000000000000000013000000000000
#06412:0013000013000013
#0641b:0000130000130013
#06415:00130000
#06418:0013000000000000
#06417:0013
#06416:00000000000000000000001300000000
#01018:00000000000000001300000000130000
#01015:00000000000000000000001300000000
#0101b:0000001300130013
#01012:0013000013000013
#0211b:00000013000000000000001300000000
#02118:00130000000013000013000000000013
#02112:23000000130000000013000000001300
#02115:00001300000000130000001300000000
#02110:41
#02312:00000013000000000000001300000000
#02315:00130000000013000013000000000013
#0231b:23000000130000000013000000001300
#02318:00001300000000130000001300000000
#02719:0013000000000000
#02712:00000013000000000000001300001300
#02716:00000000000000000013000000000000
#0271b:23000000000000000013000000000013
#02714:00130000000013000000000000000000
#02717:00000000130000130000001300000000
#03618:0013001300000013
#03615:1300130000130000
#03612:00000000000000001300000000130000
#0361b:00000000000000000000001300000000
#03610:41
#00812:1313000000000013
#00815:0000131300130000
#0081b:00000000130000000000001300000000
#00818:13000000000000001300000000130013
#0121b:0000130013000013
#01218:00000000000013000000001300130000
#01212:1300000000130000
#01215:0013000013000013
#0421b:00001300000000001300001300000000
#04219:00130000
#04217:00000000000013000000000000130000
#04216:0013000000130000
#04212:0000000000000013
#04312:00001300000000001300001300000000
#04314:00130000
#04316:0000001300000000
#04317:0013000000130000
#04318:0000000000000013
#05715:1400140000130013
#05717:0014001400000000
#0571b:0013
#05718:00000000000000000000001300130000
#05912:00001300000013000000000000130000
#0591b:00131300
#05918:0013000000130013
#05915:00000000130000000000001300000000
#0631b:00001300000000001300000000130000
#06318:00130000
#06312:0000130000130013
#06317:00000000000000000000001300000000
#06315:0013000000000000
#06316:0013
#01712:00000000130000000000001400001300
#01719:0000130013000013
#01715:0000001300000000
#01716:00000000000000000013000000000000
#01717:0013000000000000
#0171a:00000000000000000000001400000000
#01714:23
#0171b:23
#0151b:00000000130000000000001300000000
#01515:0000001313000000
#01518:00000000000000130013000000000000
#01519:0000000000000013
#01514:0000000000000013
#01517:0013000000000000
#01513:13
#01512:00000000000000000000001300000000
#03315:0013000013000013
#03312:2300130000130000
#0331b:13000000130000000000001300000000
#03318:00000000000013000013000000130000
#03412:13131300
#03419:00000000000000000000121200000000
#03415:00000000000013000000121200001300
#0341b:2300130013000013
#03418:0013000000000000
#05412:2300000013000013
#05415:0023230000130000
#0541b:00000000230000000000001300000000
#05416:00000000000000000000000000140000
#05418:23000000000023000013000000000000
#05512:00131300
#05515:13000000000013000000001300001300
#0551b:1313
#05518:0013130000130000
#0315a:0000000000530000
#03155:00000000000000530000000000005300
#03154:0025
#03752:0063000000000013
#03757:00000000000000000000000000130000
#0385b:0053000000000013
#03856:00000000000000000000000000130000
#03952:0063000000000000
#04157:0053000000000000
#0415b:0000000000000013
#04156:00000000000000000000000000130000
#02252:00000000000000000000006300000000
#0265b:00000000000000000000006300000000
#0285b:0013
#02858:0000000000130000
#02855:00000013
#02852:0000000000000013
#03255:0053005300000000
#03258:63630000
#05253:0024
#05255:0000000000000054
#05259:0024
#05254:00000000000000520000000000000000
#0525a:00000000000000520000000000000000
#05357:54540000
#05355:0054000000000000
#05855:0063000000000013
#05852:00230000
#05055:53
#05058:00630000
#06255:00230000
#0625b:0000230000000013
#06258:0053000000000000
#0655b:0000006300005300
#06552:0000006300005300
#06555:00000000000000000023000000000000
#06558:00000000000000000023000000000000
#03658:0063006300000000
#03655:53530000
#03558:0000000000000063
#04256:0063000000000000
#04257:00000000000000000000000000130000
#04252:0000000000000013
#04357:0053000000000000
#05755:64640000
#05757:0064000000000000
#05657:0000000000000064
#05958:0053000000000013
#0595b:00230000
#06055:0063000000000000
#06052:00230000
#06358:00230000
#06352:0000230000000013
#06355:0063000000000000
#06455:00230000
#06458:0053000000000000
#0645b:00230000
#0165b:0013
#01652:0000000000000013
#01655:0000000000130000
#01658:00000013
#02052:0013
#02055:00000013
#0205b:0000000000000013
#02058:0000000000130000
#02452:0013
#02455:0000000000130000
#02458:00000013
#0245b:0000000000000013
#0045b:00000013
#00452:00000013
#05158:53
#05155:00530000
#05555:63
#05558:00630000
#05458:63
#05455:00530000
#02952:53
#0295b:00530000
#0305b:63
#03052:00630000
#0335b:63
#03352:00630000
#03452:53
#0345b:00530000
#06655:13
#06658:13
#0043b0:00000000000013330000003323000000
#004380:00000000000000003333330000000000
#004321:00000000000013330000003323000000
#004351:00000000000000003333330000000000
#009321:13
#009351:0023000000000000
#0093b1:00130000
#009381:0000002300000000
#0103b1:13
#010381:0023000000000000
#010321:00130000
#010351:0000002300000000
#011351:13
#011321:0023000000000000
#011381:00130000
#0113b1:0000002300000000
#012381:13
#0123b1:0023000000000000
#012351:00130000
#012321:0000002300000000
#014351:00000000000000001300002300000000
#018381:00000000000000001300002300000000
#022321:00000000000000000000001300000000
#022351:0000000000000023
#0263b1:00000000000000000000001300000000
#026381:0000000000000023
#029321:13
#029351:0023000000000000
#0293b1:00130000
#029381:0000002300000000
#0303b1:13
#030381:0023000000000000
#030321:00130000
#030351:0000002300000000
#031351:00000000000000130033000000000000
#031341:0055
#031361:000000000000000000000000000000000000000000000000000000000000000000000000000000000000000000000000000000000000000000000000000000000000000000000000000000000000000000000000000000000000000000000000000000000000000000000000000000000000000000000000000000000000000000000000000000000000000000000000000000000000000000000000000000000000000000000000000000000000000000000000000000000000000000000000000000000000000000000000000000000000000000000000000000000000000000000000000000000000000000000000000000000000000000000000000000000000000000000000000000000000000000000000000000000000000000000000000000000000000000000000000000000000000000000000000000000000000000000000000000000000000000000000000000000000000000000000000000000000000000000000000000000000000000000000000000000000000000000000000000000000000000000000000000000000000000000000000000000000000000000000000000000000000000000000000000000000000000000000000000000000000000000000000000000000000000000000000000000000000000000000000000000000000000000000000000000000000000000000000000000000000000000000000000000000000000000000000000000000000000000000000000000000000000000000000000000000000000000000000000000000000000000000000000000000000000000000000000000000000000000000000000000000000000000000000000000000000000000000000000000000000000000000000000000000000000000000000000000000000000000000000000000000000000000000000000000000000000000000000000000000000000000000000000000000000000000000000000000000000000000000000000000000000000000000000000000000000000000000000000000000000000000000000000000000000000000000000000000000000000000000000000000000000000000000000000000000000000000000000000000000000000000000000000000000000000000000000000000000000000000000000000000000000000000000000000000000000000000000000000000000000000000000000000000000000000000000000000000000000000000000000000000000000000000000000000000000000000000000000000000000000000000000000000000000000000000000000000000000000000000000000000000000000000000000000000000000000000000000000000000000000000000000000000000000000000000000000000000000000000000000000000000000000000000000000000000000000000000000000000000000000000000000000000000000000000000000000000000000000000000000005200000000000000000000000000000000000000000000000000000000000000000000000000000000000000000000000000000000000000000000000000000000000000000000000000000000000000000000000000000000000000000000000000000000000000000000000000000000000000000000000000000000000000000000000000000000000000000000000000000000000000000000000000000000000000000000000000000000000000000000000000000000000000000000000000000000000000000000000000000000000000000000000000000000000000000000000000000000000000000000220000000000000000000000000000000000000000000000000000000000000000000000000000000000000000000000000000000000000000000000000000000000000000000000000000000000000000000000000000000000000000000000000000000000000000000000000000000000000000000000000000000000000000000000000000000000000000000000000000000000000000000000000000000000000000000000000000000000000000000000000000000000000000000000000000000000000000000000000000000000000000000000000000000000000000000000000000000000000000000000000000000000000000000000000000000000000000000000000000000000000000000000000000000000000000000000000000000000000000000000000000000000000000000000000000000000000000000000000000000000000000000000000000000000000000000000000000000000000000000000000000000000000000000000000000000000000000000000000000000000000000000000000000000000000000000000000000000000000000000000000000000000000000000000000000000000000000000000000000000000000000000000000000000000000000000000000000000000000000000000000000000000000000000000000000000000000000000000000000000000000000000000000000000000000000000000000000000000000000000000000000000000000000000000000000000000000000000000000000000000000000000000000000000000000000000000000000000000000000000000
#0313a0:00000000000000000013530000000000
#031380:00000000000000000000002300000000
#031350:0000000000000013
#032320:23
#032381:13
#0323b1:0023000000000000
#032350:0013000000000000
#032320:00230000
#032381:00130000
#0323b1:0000002300000000
#032350:0000001300000000
#032320:0023
#0333b0:13
#033380:0023000000000000
#033320:00130000
#033350:0000002300000000
#034320:13
#034350:0023000000000000
#0343b0:00130000
#034380:0000002300000000
#035380:0000000000000013
#0363b0:23
#036351:13
#036321:0023000000000000
#036380:0013000000000000
#0363b0:00230000
#036351:00130000
#036321:0000002300000000
#036380:0000001300000000
#0363b0:0023
#037320:0013000000000000
#037360:0000002300000000
#0383b0:0013000000000000
#038370:0000002300000000
#039320:0013000000000000
#039360:0000002300000000
#039380:0000000000000013
#040380:0023000000000000
#040351:0013002300000000
#041371:0013000000000000
#0413b1:0000002300000000
#042361:0013000000000000
#042321:0000002300000000
#043371:0013000000000000
#0433b1:0000002300000000
#043351:0000000000000013
#044351:0023000000000000
#044380:0013002300000000
#045320:00000000000000000000001300002300
#0463b0:00000013002300000000000000000000
#047320:00000013002300000000000000000000
#0473b0:00000000000000000000001300002300
#048320:00000013000000000000000000000000
#048350:00000000002300000000000000000000
#049350:1222000000000000
#049391:0012220000000000
#049350:0000122200000000
#049391:0000001222000000
#049350:0000000012220000
#0493c1:0000000000120022
#049320:00000000000000000000001200002200
#050350:13
#050320:0023000000000000
#050380:00130000
#0503b0:0000002300000000
#051380:13
#0513b0:0023000000000000
#051350:00130000
#051320:0000002300000000
#052340:00000000000000120033000000000000
#052330:0054
#052350:000000000000000000000000000000000000000000000000000000000000000000000000000000000000000000000000000000000000000000000000000000000000000000000000000000000000000000000000000000000000000000000000000000000000000000000000000000000000000000000000000000000000000000000000000000000000000000000000000000000000000000000000000000000000000000000000000000000000000000000000000000000000000000000000000000000000000000000000000000000000000000000000000000000000000000000000000000000000000000000000000000000000000000000000000000000000000000000000000000000000000000000000000000000000000000000000000000000000000000000000000000000000000000000000000000000000000000000000000000000000000000000000000000000000000000000000000000000000000000000000000000000000000000000000000000000000000000000000000000000000000000000000000000000000000000000000000000000000000000000000000000000000000000000000000000000000000000000000000000000000000000000000000000000000000000000000000000000000000000000000000000000000000000000000000000000000000000000000000000000000000000000000000000000000000000000000000000000000000000000000000000000000000000000000000000000000000000000000000000000000000000000000000000000000000000000000000000000000000000000000000000000000000000000000000000000000000000000000000000000000000000000000000000000000000000000000000000000000000000000000000000000000000000000000000000000000000000000000000000000000000000000000000000000000000000000000000000000000000000000000000000000000000000000000000000000000000000000000000000000000000000000000000000000000000000000000000000000000000000000000000000000000000000000000000000000000000000000000000000000000000000000000000000000000000000000000000000000000000000000000000000000000000000000000000000000000000000000000000000000000000000000000000000000000000000000000000000000000000000000000000000000000000000000000000000000000000000000000000000000000000000000000000000000000000000000000000000000000000000000000000000000000000000000000000000000000000000000000000000000000000000000000000000000000000000000000000000000000000000000000000000000000000000000000000000000000000000000000000000000000000000000000000000000000000000000000000000000000000000000000005200000000000000000000000000000000000000000000000000000000000000000000000000000000000000000000000000000000000000000000000000000000000000000000000000000000000000000000000000000000000000000000000000000000000000000000000000000000000000000000000000000000000000000000000000000000000000000000000000000000000000000000000000000000000000000000005254000000000000000000000000000000000000000000000000000000000000000000000000000000000000000000000000000000000000000000000000000000000000000000240000000000000000000000000000000000000000000000000000000000000000000000000000000000000000000000000000000000000000000000000000000000000000000000000000000000000000000000000000000000000000000000000000000000000000000000000000000000000000000000000000000000000000000000000000000000000000000000000000000000000000000000000000000000000000000000000000000000000000000000000000000000000000000000000000000000000000000000000000000000000000000000000000000000000000000000000000000000000000000000000000000000000000000000000000000000000000000000000000000000000000000000000000000000000000000000000000000000000000000000000000000000000000000000000000000000000000000000000000000000000000000000000000000000000000000000000000000000000000000000000000000000000000000000000000000000000000000000000000000000000000000000000000000000000000000000000000000000000000000000000000000000000000000000000000000000000000000000000000000000000000000000000000000000000000000000000000000000000000000000000000000000000000000000000000000000000000000000000000000000000000000000000000000000000000000000000000000000000000000000000000000000000000000000000000000000000000000000000000000000000000000000000000000000000000000000000000000000000000000000
#0523a1:00000000000000120033000000000000
#052391:000000000000000000000000000000000000000000000000000000000000000000000000000000000000000000000000000000000000000000000000000000000000000000000000000000000000000000000000000000000000000000000000540000000000000000000000000000000000000000000000000000000054000000000000240000000000000000000000000000000000000000000000000000000000000000000000000000000000000000000000000000000000000000000000
#0523b1:000000000000000000000000000000000000000000000000000000000000000000000000000000000000000000000000000000000000000000000000000000000000000000000000000000000000000000000000000000000000000000000000000000000000000000000000000000000000000000000000000000000000000000000000000000000000000000000000000000000000000000000000000000000000000000000000000000000000000000000000000000000000000000000000000000000000000000000000000000000000000000000000000000000000000000000000000000000000000000000000000000000000000000000000000000000000000000000000000000000000000000000000000000000000000000000000000000000000000000000000000000000000000000000000000000000000000000000000000000000000000000000000000000000000000000000000000000000000000000000000000000000000000000000000000000000000000000000000000000000000000000000000000000000000000000000000000000000000000000000000000000000000000000000000000000000000000000000000000000000000000000000000000000000000000000000000000000000000000000000000000000000000000000000000000000000000000000000000000000000000000000000000000000000000000000000000000000000000000000000000000000000000000000000000000000000000000000000000000000000000000000000000000000000000000000000000000000000000000000000000000000000000000000000000000000000000000000000000000000000000000000000000000000000000000000000000000000000000000000000000000000000000000000000000000000000000000000000000000000000000000000000000000000000000000000000000000000000000000000000000000000000000000000000000000000000000000000000000000000000000000000000000000000000000000000000000000000000000000000000000000000000000000000000000000000000000000000000000000000000000000000000000000000000000000000000000000000000000000000000000000000000000000000000000000000000000000000000000000000000000000000000000000000000000000000000000000000000000000000000000000000000000000000000000000000000000000000000000000000000000000000000000000000000000000000000000000000000000000000000000000000000000000000000000000000000000000000000000000000000000000000000000000000000000000000000000000000000000000000000000000000000000000000000000000000000000000000000000000000000000000000000000000000000000000000000000000000000000000000000000005200000000000000000000000000000000000000000000000000000000000000000000000000000000000000000000000000000000000000000000000000000000000000000000000000000000000000000000000000000000000000000000000000000000000000000000000000000000000000000000000000000000000000000000000000000000000000000000000000000000000000000000000000000000000000000000005200000000000000000000000000000000000000000000000000000000000000000000000000000000000000000000000000000000000000000000000000000000000000000000000000000000000000000000000000000000000000000000000000000000000000000000000000000000000000000000000000000000000000000000000000000000000000000000000000000000000000000000000000000000000000000000000000000000000000000000000000000000000000000000000000000000000000000000000000000000000000000000000000000000000000000000000000000000000000000000000000000000000000000000000000000000000000000000000000000000000000000000000000000000000000000000000000000000000000000000000000000000000000000000000000000000000000000000000000000000000000000000000000000000000000000000000000000000000000000000000000000000000000000000000000000000000000000000000000000000000000000000000000000000000000000000000000000000000000000000000000000000000000000000000000000000000000000000000000000000000000000000000000000000000000000000000000000000000000000000000000000000000000000000000000000000000000000000000000000000000000000000000000000000000000000000000000000000000000000000000000000000000000000000000000000000000000000000000000000000000000000000000000000000000000000000000000000000000000000000000000000000000000000000000000000000000000000000000000000000000000000000000000000000000000000000000000000000000000000000000000000000000000000000
#052351:0000000000000014
#053321:24
#053370:14
#0533a0:0024000000000000
#053351:0014000000000000
#053321:00240000
#053370:00140000
#0533a0:0000002400000000
#054380:13
#0543b0:0023000000000000
#054350:00130000
#054320:0000002300000000
#055350:13
#055320:0023000000000000
#055380:00130000
#0553b0:0000002300000000
#056370:0000000000000014
#0573a0:24
#057351:14
#057321:0024000000000000
#057370:0014000000000000
#0573a0:00240000
#057351:00140000
#057321:0000002400000000
#058351:0013002300000000
#058321:00330000
#059381:0013002300000000
#0593b1:00330000
#060351:0013002300000000
#060321:00330000
#062381:0013002300000000
#0623b1:00330000
#062350:00130000
#062320:0000002300000000
#063350:0013002300000000
#063320:00330000
#063381:00130000
#0633b1:0000002300000000
#064381:0013002300000000
#0643b1:00330000
#064350:00130000
#064320:0000002300000000
#065320:0000001300005300
#065350:00000000000000000053000000000000
#066350:23
#0653b1:0000001300005300
#065381:00000000000000000053000000000000
#066381:23
