This file was generated by Ched 2.6.2.0.
#TITLE ""
#ARTIST ""
#DESIGNER ""
#DIFFICULTY 0
#PLAYLEVEL
#SONGID ""
#WAVE ""
#WAVEOFFSET 0
#JACKET ""
#REQUEST "ticks_per_beat 480"
#00002: 4
#BPM01: 127
#00008: 01
#TIL00: ""
#HISPEED 00
#MEASUREHS 00
#00118:00001300000000001300130000130000
#0011b:13
#00115:00000000130000000013001300001300
#00112:0000001300000000
#00218:13000000000000000000001300000000
#0021a:0013
#00215:0000000000130000
#00213:0000001300000000
#00212:0013000000000013
#00219:00130000
#02218:00000013000000130000130000000000
#02215:00000000001300000013000000000000
#02212:0013000000000000
#0221b:13
#04518:00130000000000002300130000000000
#04512:23001300000000130000000000000000
#0451b:00000013001300000000000000000000
#04515:00000000130000000013000000000000
#00019:000013000000000000000000000000000000130000130000
#00014:130000001300000000000000000000000000130000130000
#00015:001300
#00018:000000000013000000000000
#00012:0013
#0001b:00130000
#0031b:13000000000000130013001300001300
#00315:00001300000000130013001300000000
#00318:00000013000000000000000000000000
#00312:00000000001300000000000000000000
#00418:0013000000000000
#00412:00130000
#00415:13
#00515:00001300000000000000130000130000
#00518:00000000130000000000001300001300
#00512:0000001300000000
#0051b:2313
#00510:41
#01318:00131300
#01312:0000001300000013
#01315:00001300000000000013000000000000
#0131b:23000000000000000000001300000000
#01310:41
#01518:0013001313000000
#01515:00000000000000130013000000000000
#0151b:00000000000000000000001300000000
#01512:1300130000000013
#0161b:1300000000000013
#01615:00001300001300000000000013000000
#01618:00000013000013000000130000000000
#01612:0013
#00612:1313
#00618:00001300000000000000130000130000
#00615:00000000130000000000001300001300
#0061b:0000001300000000
#00712:0013001300000000
#00718:0000130000130013
#00715:00000000000000000000001300130000
#0071b:1313
#00918:0000000013000013
#0091b:00000000000000000000001300000000
#00915:0000000000130000
#00912:00000000000000000000000000130000
#0371b:00001300000013000000130000130000
#03712:0013
#03715:00000000130000000000001300001300
#03718:0013
#04015:1300001300000000
#04018:00130000
#04012:0013000000000000
#03918:0000000013000013
#0391b:0013001300130000
#03912:0013
#03915:00000000130000000000001300000000
#0111b:0000000013130000
#01115:00000000000000001300001300000000
#01112:00000000000000000000000000130000
#01118:0000000000000013
#04615:00130000000000000000000000001300
#0461b:23001300000000130000000000000000
#04612:00000013
#04618:0000000000130000
#01414:0000001300000000
#01413:0013000000000000
#0141a:00130000
#01419:13
#0291b:2300000013130000
#02915:00001300000000000013001300001300
#02918:00000000130000000000000000130000
#02912:0000001300000000
#02910:41
#03015:00000000130000001300001300000000
#0301b:0000001300000013
#03018:0013000000130000
#03012:23
#03112:13000000001300130000000000000000
#03118:00001300000000000013000000000000
#03115:00000013000000000013000000001300
#0311b:00000000001300130000000000001300
#0501b:2323000013130000
#05015:23002300000000000013001300001300
#05018:00000000230023000000000000130000
#0501f:21
#05012:0000232300000000
#0511b:0000131300000013
#05112:1313000013000000
#05115:00000000130013000000001300000000
#05118:1313000000130000
#05212:13000000001300130000000000000000
#05218:00001300000000000013000000000000
#05215:00000013000000000013000000001300
#0521b:00000000001300130000000000001300
#05210:41
#06112:00130000
#0611b:0013000000000000
#06118:13130000
#04814:000000000000001400000000
#04812:230000130000000000001400000000000000000000000000
#04818:00130000000000000000000014000000
#0481a:000000000000000000000014
#0411f:11
#04112:00001300000013000000130000130000
#0411b:0013
#04118:00000000130000000000001300001300
#04115:0013
#02115:00130013000013000000000000000013
#0211b:2313130000000013
#02118:00000000000000130000001300000000
#02112:00000000000000000013000000000000
#02110:41
#02318:00130013000013000000000000001300
#02312:23001300130000000000000000000013
#02315:00000000000000130000001300000000
#0231b:00000000000000000013000000000000
#02415:00000013000000000000000000000000
#0241b:0013000000000000
#02418:13000000001300130000000000000000
#02412:00000000001300130000000000000000
#0081b:0013001300000000
#00815:0000130000130013
#00818:00000000000000000000001300130000
#00812:1313
#01015:0000000013000013
#01012:00000000000000000000001300000000
#01018:0000000000130000
#0101b:00000000000000000000000000130000
#01212:0000000013130000
#01218:00000000000000001300001300000000
#0121b:00000000000000000000000000130000
#01215:0000000000000013
#01715:00131300
#0171b:0000001300000013
#01718:00001300000000000013000000000000
#01712:23000000000000000000001300000000
#01915:0013001313000000
#01918:00000000000000130013000000000000
#01912:00000000000000000000001300000000
#0191b:1300130000000013
#02012:1300000000000013
#02018:00001300001300000000000013000000
#02015:00000013000013000000130000000000
#0201b:0013
#02618:00000000001300000000130000000000
#02615:13000013000000130013000000000000
#0261b:0013000000000000
#02518:00130013000000000013000000000013
#02512:23000000130000000000001300001300
#02515:00001300000000130000000000000000
#0251b:0000001300000000
#02715:00130013000000000013000000001300
#0271b:23000000130000000000001300000013
#02718:00001300000000130000000000000000
#02712:0000001300000000
#02818:00000013000000000000000000000000
#02812:0013000000000000
#02815:13000000001300130000000000000000
#0281b:00000000001300130000000000000000
#0321b:1300001300000000
#03212:0013130000000000
#03218:0013000000000000
#03215:0000001300000000
#03312:2300130013130000
#03318:13000000130000000013001300001300
#03315:00000000000000000000000000130000
#0331b:0013001300000000
#03418:00000000000000001300001300000000
#03412:0013001300000013
#03415:1300130000130000
#0341b:23130000
#0351b:13000000001300130013000000001300
#03515:00001300000000130000000000001300
#03518:00000013000000000000001300000000
#03512:00000000001300000013001300000000
#03612:0013001300000000
#03618:1313001300000000
#03615:00130000
#03610:41
#03812:00001300000013000000130000130000
#0381b:0013
#03818:00000000130000000000001300001300
#03815:0013
#04418:1300001300000000
#04415:00130000
#0441b:0013000000000000
#04315:0000000013000013
#04312:0013001300130000
#0431b:0013
#04318:00000000130000000000001300000000
#0421b:00001300000013000000130000130000
#04212:0013
#04215:00000000130000000000001300001300
#04218:0013
#04715:00130000000000002300130000000000
#0471b:23001300000000130000000000000000
#04712:00000013001300000000000000000000
#04718:00000000130000000013000000000000
#04915:13131300
#04918:0013001300130000
#05318:13000000130000000013000000000000
#05315:0013001300000000
#05312:00000000130000000013000000000000
#0531b:0000001300000000
#05412:2323000013130000
#05418:23002300000000000013001300001300
#05415:00000000230023000000000000130000
#0541b:0000232300000000
#05512:0000131300000013
#0551b:1313000013000000
#05518:00000000130013000000001300000000
#05515:1313000000130000
#0561b:13000000001300130013000000000000
#05615:00001300000000130000000000000000
#05618:00000013000000000000001300001300
#05612:00000000001300000013001300001300
#05715:13000000130000000013000000000000
#05718:0013001300000000
#0571b:00000000130000000013000000000000
#05712:0000001300000000
#0581b:0013000000130000
#05815:00000000000013000000001300000000
#05812:0000000013000013
#05818:00000000130000001300000000130000
#05912:0013000000130000
#05918:00000000000013000000001300000000
#0591b:0000000013000013
#05915:00000000130000001300000000130000
#0601b:0013000000130000
#06015:00000000000013000000001300001300
#06012:0013
#06018:00131300
#06212:0013000000130013
#06214:0000001300000000
#0621b:0013
#06218:00001300000000000000001300130000
#06213:00130000
#06215:0013
#06219:00130000
#0621a:0000001300000000
#0631b:0013000000130013
#06319:0000001300000000
#06312:0013
#06315:00001300000000000000001300130000
#0631a:00130000
#06318:0013
#06314:00130000
#06313:0000001300000000
#06412:0013001300130000
#0641b:00131300
#06418:00001300000013000000001300000000
#06415:0000130013000013
#06518:13
#0651b:0013131300000000
#06512:0000131300000000
#01819:0000001300000000
#0181a:0013000000000000
#01813:00130000
#01814:13
#00459:00000013
#00454:00000013
#01652:0013
#01658:0000000000130000
#01655:00000013
#0165b:0000000000000013
#0205b:0013
#02055:0000000000130000
#02058:00000013
#02052:0000000000000013
#0325b:0000005300000000
#03255:0000005300000000
#03652:0000006300000000
#03658:0000006300000000
#04055:0000005300000000
#04458:0000006300000000
#0535b:0000005300000000
#05355:0000005300000000
#05358:00000000000000000023000000000000
#05352:00000000000000000023000000000000
#05752:0000006300000000
#05758:0000006300000000
#0575b:00000000000000000023000000000000
#05755:00000000000000000023000000000000
#06552:0000005300000000
#0655b:0000006300000000
#0315b:00000000000000530000000000000000
#03152:00000000000000530000000000000000
#03158:00000000000000000023000000000000
#03155:00000000000000000023000000000000
#05252:00000000000000630000000000000000
#05255:00000000000000000023000000000000
#05258:00000000000000000023000000000000
#0525b:00000000000000630000000000000000
#03755:0000000000000013
#0375b:00000000000000000000000000130000
#03852:00000000000000000000000000130000
#03858:0000000000000013
#04152:00000000000000000000000000130000
#04158:0000000000000013
#0425b:00000000000000000000000000130000
#04255:0000000000000013
#06252:0000000000000013
#0635b:0000000000000013
#06655:13
#06658:13
#004390:000000000000000000130033003300330000230000000000
#004341:000000000000000000130033003300330000230000000000
#009381:1323000000000000
#009321:0000132300000000
#010351:1323000000000000
#0103b1:0000132300000000
#011381:1323000000000000
#011321:0000132300000000
#012351:1323000000000000
#0123b1:0000132300000000
#0143b1:00000000000000001300002300000000
#018321:00000000000000001300002300000000
#022351:00000000000000000000001300002300
#026351:00000000000000000000001300002300
#0313b1:00000000000000130000002300000000
#031381:00000000000000000033000000000000
#031320:00000000000000130000002300000000
#031350:00000000000000000033000000000000
#0323b0:0000001300000000
#032380:00000023
#032351:0000001300000000
#032321:00000023
#036321:0000001300000000
#036351:00000023
#036380:0000001300000000
#0363b0:00000023
#040350:0000001300000000
#040320:00000023
#044380:0000001300000000
#0443b0:00000023
#045320:00000000000000000000001300002300
#046320:00000013002300000000000000000000
#0473b0:00000000000000000000001300002300
#0483b0:00000013002300000000000000000000
#049350:00000000000000000000001300002300
#052320:00000000000000130000002300000000
#052350:00000000000000000033000000000000
#0523b1:00000000000000130000002300000000
#052381:00000000000000000033000000000000
#0533b1:0000001300002300
#053381:00000000000000000053000000000000
#053350:0000001300002300
#053320:00000000000000000053000000000000
#057320:0000001300002300
#057350:00000000000000000053000000000000
#057381:0000001300002300
#0573b1:00000000000000000053000000000000
#061351:0000001300002300
#0613b0:0000001300002300
#065320:0000001300000000
#066350:23
#0653b1:0000001300000000
#066381:23
