This file was generated by Ched 2.6.2.0.
#TITLE ""
#ARTIST ""
#DESIGNER ""
#DIFFICULTY 0
#PLAYLEVEL
#SONGID ""
#WAVE ""
#WAVEOFFSET 0
#JACKET ""
#REQUEST "ticks_per_beat 480"
#00002: 4
#BPM01: 127
#00008: 01
#TIL00: ""
#HISPEED 00
#MEASUREHS 00
#02119:00000033000012000000000000000000
#02115:0000000000000013
#02113:0000001200000000
#02118:00330000000000000000000000000013
#02116:2313130000000000
#0211b:13
#02112:0013000000000000
#02110:41
#02216:0000000000001300000013000000000000001400000000000014000000000000
#02212:00001300000000130000140000000000
#0221a:00000000000000000000001400000000
#0221b:13000000001300000000000000000000
#02215:13
#00518:0012120000000000
#00516:2200001212000000
#0051c:2212
#00519:00000000000000000000121200000000
#00515:0000000000000013
#0051b:00000000000000000000000000130000
#00512:00000000120000000000121200000000
#00510:41
#01718:1212000012000000
#0171a:00000000120012000012000000000000
#0171c:00000000000000000000001200001200
#01712:23131313
#01714:0013001300130013
#00012:12
#00019:001200000000000000000000
#00015:001200000000
#00018:000000000000000000000000000000001200000000000000000000000000000000000000120000120000120000120000
#00013:000000000012000000000000
#0001c:00121200
#00919:0012
#0091a:00000000000000000000001200000000
#00916:2200000000120000
#00917:0000000000000013
#00912:00001200000000000000000000130000
#00913:0012
#00918:0000001200000000
#0091c:0000120000120000
#00914:00000000000000000000001200000000
#0311b:00000000000000220000120000001300
#03114:1215
#0311a:1200000000000000000012000000001400002200000000000000000000000000
#03112:00000000001200000000000000001300
#03116:0012000000000000
#03118:00000012000000000000000000000000
#03115:00000000000000230000000000000013
#03715:00000033000000001200000000000000
#0371c:00000000000000000000121200000000
#03712:23000000000000000000121200000000
#03718:00000000003300000000000000120000
#03716:0000000000000012
#03719:00331200
#0371b:23
#03713:00000000003300000000000000000000
#03714:00330000
#0371a:00000033000000000000000000000000
#04019:0013
#04017:13000000130000000000131300000000
#04014:0013
#04016:00001300000013000000000000131300
#04012:13130000
#0401b:0013001300000000
#02412:13000000001300001300000000000000
#02416:00000013
#02414:0000000000130000
#02417:00000013001300000013000000000000
#02415:00000000000000130000000000000000
#02419:00000000000000000000001300000000
#0241b:00001300000000000000000000130000
#02418:1300000000000013
#0301c:0012
#03015:00000000000000000000121200000000
#03012:1300130012000012
#03019:00000000000000000000121200000000
#0301b:0013001300000000
#03017:2300000000000012
#06518:0013001300000000
#06515:0013001300000000
#06512:13000000130000000013000000000000
#0651b:13000000130000000013000000000000
#04815:000000000000000000000000000000000000000000120000000000001600000000000000160000000000000016000000
#04818:000000000000000000120000000000000000000000000000160000000000000000000000000000001600000000000000
#04812:000016
#0481a:00120000000000000000000000000000
#04814:2212000000000000
#04816:00000012000000000000000000000000
#05812:2313000013000000
#05814:00130000
#05816:00000000000013000000130000141400
#05817:0013
#0581b:23000000000000000000001300000000
#06116:13000000000000000000001400141400
#06112:00001300000013000000141400000000
#0611a:0000130000000014
#0611b:13
#06117:0013001300000000
#06115:00130000
#06119:00330033003300330000000000000000
#06114:00330033003300330000000000000000
#05015:00130000001300001300130000000000
#0501b:00000013000000001300001300130000
#05016:00000000000000000000000000130000
#05012:23000000230000000000001300001300
#05018:00002300000023000013000000000000
#05017:2300000000000013
#0501f:21
#05118:00130000001300001300000000000000
#05112:00000013000000001300130000000000
#05116:13000000000000000000001300000000
#05117:0000000000130013
#0511b:13000000130000000000001300001300
#05115:0013001300000000
#0521b:13000000001300000000000000000000
#05216:00000000001300000000000000000000
#05213:0014
#05219:0014
#05212:00000013000000000000000000000000
#05215:0000000000000013
#05214:00000000000000220000000000000000
#0521a:00000000000000220000000000000000
#05210:41
#05915:13
#0591b:2313000013000000
#05919:00130000
#05917:0000001300130000
#05916:00000000000000001300000000141400
#05912:00000000000000000000001300000000
#06418:0000000000000013
#06415:0000000000000013
#06417:0013001313130000
#0641b:23131300
#06416:13
#06412:00000000000000000000001300000000
#0411f:11
#04112:23001300000013000000000000120000
#04118:0000000000000012
#04116:00000000130000000000001200000000
#0411b:23130000
#04117:0013000000000000
#0411a:00000000003300000000000000000000
#04119:00000033000000000000000000000000
#00116:00001200000012000000000000120000
#00118:12120000
#0011b:0012
#00119:0000000000120012
#00115:00000000000000000012000000001200
#00113:00000000000000000000001200000000
#0011a:00000000000000000000000000120000
#00219:00000000000000000000001200001200
#0021b:12
#00213:0012
#00218:0000000000120000
#00215:00000000000000000000001200001200
#00214:0000000000120000
#0031c:12000000000000120000000000001200
#00316:00000012000000120000000000001200
#0031a:00000000001200000012000000000000
#00312:12000000000000000000001200000000
#00318:00001200000000000000001200000000
#00314:00000000001200000012000000000000
#00418:12000000120000120000000000000000
#00416:0012001200000000
#00412:12120012
#0041c:0012000000000012
#00415:0012
#00414:0000000000120000
#00419:00000000000000000012000000000000
#0041a:00000000000000000000001200000000
#05418:00130000001300001300130000000000
#05412:00000013000025001300001300000000
#0541b:23000000230000000000001300131300
#05415:00002300000000000013000000000000
#05416:00000000000000000000000000131300
#05413:25
#05515:00130000001300001300000000000000
#05517:00000000000000000000131300000000
#0551b:00000013000000001300000000000000
#05512:13000000130000000000131300001300
#05518:1513000000000000
#05519:0000001500000000
#05516:0000000000000013
#06217:0013001313130000
#0621b:23131300
#06212:00000000000000000000001300140000
#06216:23
#02517:0000001300000000
#02512:2300001300000000
#02518:00130000000000000000000000001300
#02515:00000000000000000000000000000013
#02514:0013000000000000
#02516:00130000
#0251a:00000013000000000000000000000000
#0071a:0012000000000000
#00718:00000000120000000000001200000000
#00714:0000001200000000
#00719:0000000000120000
#00715:0000000000000013
#0071b:00000000000000000000000000131300
#00712:00000000120000000000001200000000
#0071c:1212
#00716:1212
#00713:0000000000120000
#01119:00000000000000001200001200000000
#01116:0000120000120000
#01117:00000000000000000000000000131300
#01112:00000000000012000000000000130000
#01115:0012
#0111c:0012000000120000
#01113:00000000000000000000001200000000
#01118:22
#03215:00000013000000001200000000000012
#03214:0000000000120000
#03212:00001300000013000000001200000000
#03217:00000000000000000000000000120000
#03219:0000000012000012
#0321a:0000000000120000
#0321c:00000000000000000000001200000000
#0321b:13130000
#03218:00130000001300000000000000000000
#01812:13131313
#0181a:1200001200000000
#01818:00001200000000001212000000000000
#0181c:00000000120000000000001200000000
#01814:0013001300130000
#01816:0000000000000014
#0191b:13131313
#01912:1200000000000000000000000000000032123200000000000000000012000000
#01913:0012000000000000
#01914:00000000120000320000000000000000
#01919:0013001300130013
#01916:0000001200000000
#0201b:13130000
#02016:1212000000001200
#02014:00000012001200000000120000000000
#02012:0000001212000000
#02018:00000000000000000012000000001200
#0201a:00000000000000000000001200000000
#0201c:00000000000000000000000000120000
#02019:0013001300000000
#01318:12001200120000001212000000000000
#0131c:0000001200000012
#01312:23131313
#0131a:00000000000000000000001200000000
#01310:41
#01419:0000001200320000
#01412:13131313
#0141a:12
#0141b:00120000
#01418:00001200000000000032000000000000
#01417:0012
#01416:0000000000000014
#0151b:13131313
#01516:00120000
#01512:12000000000000000000001200000000
#01514:0012000032000012
#01517:0000001200000000
#01515:00000000000000320000000000000000
#01613:00000012000000000000000000000000
#01612:00000000000012000000000000120000
#01615:00000000001200000000000000000000
#01616:12001200000000000012000000001200
#0161b:13130000
#0161c:0012
#0161a:0000000000120000
#01614:00000000000000000000001200000000
#01618:00000012
#0341c:0000000012000012
#03415:00000000000000000000121200000000
#03412:2300001312000000
#03419:00000000000000000000121200000000
#03416:1300130000000012
#03417:0013000000000000
#03518:00001200001200000012000000000013
#03512:00000000001200000012000000001300
#03514:12
#03516:00000012000000120000001200000000
#0351a:12
#0351c:00000000000000120000001200000000
#0351b:0000000000000013
#03619:0000000012000012
#0361a:0000000000120000
#0361c:00000000000000000000001200000000
#03617:00000000000000000000000000120000
#03615:00130000001300001200000000000012
#03614:0000000000120000
#03612:13000000130000000000001200000000
#0361b:0013001300000000
#03618:00000013000000000000000000000000
#03610:41
#0291b:13130000
#02912:00001300000013000000001200000000
#0291c:0012
#02919:0000000000120000
#02916:23000000000000000000000000121200
#02915:00000000000000000012000000000000
#02910:41
#0331b:2300001300000000
#03317:13130000
#03316:0013000000000000
#03312:0012
#03315:0000000000120000
#0331c:00000000000000000000001200000000
#03318:00000000000000000000000000121200
#03319:00000000000000000012000000000000
#0531c:0000000012000012
#05318:00000000000000000000001200000000
#05314:0000000000120000
#05312:00000000000000000000001200000000
#05316:00000000000000001200000000120000
#0531a:00000000000000000000000000120000
#03819:00331200
#03812:13000000000000000000121200000000
#0381c:00000000000000000000121200000000
#03816:00000000000000000000000000120000
#03818:00000033000000000000000000001200
#03815:00000000003300001200000000000000
#0381b:23
#0381a:00000000003300000000000000000000
#03814:00330000
#03813:00000033000000000000000000000000
#0391c:00000000000000000000121200000000
#03912:23000000000013000000121200000000
#0391b:1300001300000013
#03916:0000000000000013
#03915:00000013001300001200000000000000
#03919:0012
#03918:0013130000000000
#0421b:1313001300000000
#0421c:00000000000000000000000000120000
#04216:0013000000000012
#04218:00000000000000000000001200000000
#04212:23130000
#04217:00130000
#04213:00000000003300000000000000000000
#04214:00000033000000000000000000000000
#04312:13000000001400000000000000001300
#04317:0000000000000013
#04316:00001400140014000000001200000000
#0431a:00000014000000000000000000000000
#0431b:23
#0441b:13130000
#04416:13000000130000000000141400141400
#04417:0013001300000000
#04412:0013001300000000
#04414:0013
#04419:0013
#02616:0000000000000000000000000000140000001400000000000014000000000000
#02617:00000000001300000000000000000000
#0261a:0000000000140000
#02612:13000000000014000000001400000000
#0261b:0013000000000000
#02618:13
#0281b:1313
#02817:00000013
#02819:0000000000130000
#02816:00000000001300000013000000000000
#02816:00000000001300000000000000000000
#02818:00000000000000130000000000000000
#02814:00000000000000000000001300000000
#02812:00001300000000000000000000130000
#02815:1300000000000013
#0451c:00000000001200000000000000000000
#04518:00120000000000120000000000000000
#04514:0012000022000000
#0451a:00000012000000000012000000000000
#04516:00000000121200000000120000000000
#04512:22000000000000120000000000001200
#04614:00120000000000000000000000000000
#04618:0012000000120012
#0461c:00000000001200000000000000000000
#04616:00000000000000120000000012000000
#0461a:22
#04718:00120000000000000000120000000000
#04716:00001200000000120000000000000000
#0471c:00000012000000000000000000000000
#04714:00000012001200000012000000000000
#04712:22000000000000000000001200000000
#0471a:00000000000000002200001200001200
#05712:0000000012000012
#05716:00000000000000000000001200000000
#0571a:0000000000120000
#0571c:00000000000000000000001200000000
#05718:00000000000000001200000000120000
#05714:00000000000000000000000000120000
#00616:0012120000000000
#00618:1200001212000013
#00612:12000000000000001200000000130000
#00615:00000000000000000000121200000000
#0061c:00000000120000000000121200000000
#00814:0012000000000000
#00816:00000000120000000000001200000000
#0081a:0000001200000000
#00812:12000000000000001200000000131300
#00815:0000000000120000
#00818:1200000012000013
#0081c:00000000120000000000001200000000
#0081b:0000000000120000
#01015:0012
#01014:00000000000000000000001200000000
#01018:1200000000120000
#01016:0000001200000013
#0101b:00000000000000001200000000130000
#0101c:0012000000000000
#01012:0000120000120000
#0101a:00000000000000000000001200000000
#01215:00000000000000001200001200000000
#01218:0000120000120000
#01216:12000000000000000000000000131300
#0121b:00000000000000000000001200130000
#01219:0012
#01212:0012000000120000
#0121c:0000001200000000
#02317:2313130000000000
#02312:13
#0231b:0013001200000000
#02315:00330000000012000000000000000013
#02318:0000000000000013
#02314:00000033000000000000000000000000
#02716:0000001300000000
#0271b:2300001300000000
#02715:00130000000000000000000000001300
#02718:00000000000000000000000000000013
#02719:0013000000000000
#02717:00130000
#02713:00000013000000000000000000000000
#05612:13000000001300000013000000000000
#05616:00000000001300000013000000000000
#05617:00000000000000130000001300000000
#0561b:00000013000000130000001300000000
#05618:0000000000000013
#06018:13
#06012:2313000013000013
#06014:00130000
#06016:0000001300130000
#06017:0000000013000013
#0601b:00000000000000000000001300000000
#06316:0013001313130000
#06312:23131300
#0631a:00000000000000000000000000140000
#06317:13
#0631b:00000000000000000000001300000000
#0315b:00000000000000520000520000004300
#03154:0025
#0315a:0000000000000000000000000000002400005200000000000000000000000000
#03152:0000000000000063
#03155:00000000000000530000000000000023
#0225a:00000000000000000000006400004400
#02256:0000000000000000000000000000000000000000000000000024000000000000
#0225b:00000000005300000000000000000000
#06558:0000006300000000
#06555:0013005300000000
#0655b:00000000000000000023000000000000
#06552:00000000000000000023000000000000
#06658:12
#06656:12
#0305b:0063000000000000
#03052:63630000
#03758:00000000000000000000000000120000
#03756:0000000000000012
#05157:0000000000000063
#0515b:5343534300000000
#05156:33
#05158:00230000002300000000000000000000
#05155:0053430000000000
#05152:00000023000000000000000000000000
#0525b:63
#05253:0024
#05259:0024
#0525a:00000000000000520000000000000000
#05254:00000000000000520000000000000000
#06458:0000000000000013
#05057:43
#05052:5333533300000000
#05055:00230000002300000000000000000000
#0505b:00000023000000000000000000000000
#05058:0053330000000000
#05459:0045004500000000
#05458:00230000002300000000000000000000
#0545b:53530000
#05453:35450000
#05452:00000023000000000000000000000000
#05455:0053000000000000
#05558:4563350000000000
#05552:6335633500000000
#05555:00230000002300000000000000000000
#05556:0000000000000053
#0555b:00000023000000000000000000000000
#05856:0000000000000044
#06156:53000000000000000000004400000000
#0615b:53
#0615a:0000530000000044
#06157:0023002300000000
#06152:0023002300000000
#06155:00530000
#06252:00000000000000000000000000340000
#0625a:0000000000000044
#02456:00000033
#02452:0033
#02454:0000000000330000
#02458:0000000000000033
#00555:0000000000000013
#00755:0000000000000013
#00952:00000000000000000000000000130000
#00957:0000000000000013
#01157:0000000000000013
#01152:00000000000000000000000000130000
#0295b:63630000
#02952:0063000000000000
#02956:33
#03357:63630000
#03356:0063000000000000
#0335b:43
#05355:0000003300000000
#05358:0000004300000000
#03856:00000000000000000000000000120000
#03858:0000000000000012
#04152:00000000000000000000000000320000
#04158:0000000000000042
#04157:0053000000000000
#0415b:00230000
#03456:53530000
#03457:0053000000000000
#0395b:0000000000000043
#04052:33330000
#0405b:0043004300000000
#04352:0000000000000033
#0445b:43430000
#04452:0033003300000000
#03252:3363330000000000
#03255:00000023000000000000000000000000
#0325b:5343534300000000
#03258:00230000002300000000000000000000
#02052:0032
#02056:00000032
#02058:0000000000000032
#02054:0000000000320000
#02652:00000000000000000000005400003400
#02656:0000000000000000000000000000000000000000000000000024000000000000
#0285b:0043
#02857:00000043
#02859:0000000000430000
#02855:0000000000000043
#04656:00000000000000320000000032000000
#04658:0000000000420042
#0475c:00000052000000000000000000000000
#04752:00000000000000000000005200000000
#04856:00000052000000000000000000000000
#04858:00000052000000000000000000000000
#0045c:0000000000000042
#00452:00000032
#00658:0000000000000013
#00858:0000000000000013
#01056:0000000000000013
#0105b:00000000000000000000000000130000
#01256:0000000000000013
#0125b:00000000000000000000000000130000
#01457:0052
#01557:0000005200000000
#01656:0000000000000042
#01658:00000042
#0165a:0000000000420000
#0165c:0042
#01956:0000005200000000
#01952:0000000000000000000000000000000000220000000000000000000000000000
#02156:0023000000000000
#0215b:63
#02357:0023000000000000
#02352:53
#0355b:0000000000000053
#03558:00000000000000000000000000000023
#03552:0000000000000033
#0365b:4353430000000000
#03658:00000023000000000000000000000000
#03652:6333633300000000
#03655:00230000002300000000000000000000
#0425c:00000000000000000000000000420000
#04256:0063000000000032
#04252:00230000
#05652:53
#05758:0000004300000000
#05755:0000003300000000
#05956:0000000000000034
#0635a:00000000000000000000000000440000
#06352:0000000000000034
#002330:1222000000000000
#002381:0012220000000000
#002360:0000122200000000
#0023b1:0000001222000000
#0093c1:12
#009381:0022000000000000
#009361:00120000
#009321:0000002200000000
#010321:12
#010361:0022000000000000
#010381:00120000
#0103c1:0000002200000000
#011361:12
#011321:0022000000000000
#011381:00120000
#0113c1:0000002200000000
#012381:12
#0123c1:0022000000000000
#012361:00120000
#012321:0000002200000000
#014371:0012
#014381:00000000000000000032000000000000
#014391:0000000000320000
#0143c1:00000000000000000000002200000000
#015371:0000001200000000
#015351:00000000000000320000000000000000
#015341:0032
#015321:00000000000000000022000000000000
#019361:00000000000012000000002200000000
#019341:00000000000000320000000000000000
#019321:0000000000000000000000000000000032523200000000000000000000000000
#0213b1:13230000
#021381:00330000000000000000000000000000
#021361:0033000000000000
#021391:00000033000000000000000000000000
#0213c1:00000000000000120032000000000000
#021391:00000000000000000000522200000000
#021360:00000000000000120032000000000000
#021330:00000000000000000000522200000000
#0223b0:00000000001300000000000000000000
#022370:00000000000000230000000000000000
#0223a0:00000000000000000000001400002400
#022360:0000000000000000000000000000000000000000000000000054000000000000
#023320:13230000
#023350:00330000000000000000000000000000
#023370:0033000000000000
#023340:00000033000000000000000000000000
#023320:00000000000000120032000000000000
#023350:00000000000000000000522200000000
#023381:00000000000000120032000000000000
#0233b1:00000000000000000000522200000000
#0253b1:00000000000000130033000000000000
#025371:00000000000000000000532300000000
#025360:00000000000000130033000000000000
#025320:00000000000000000000532300000000
#026370:00000013000000000000000000000000
#026320:00000000002300000000000000000000
#026320:00000000000000000000001400002400
#026360:0000000000000000000000000000000000000000000000000054000000000000
#027320:00000000000000130033000000000000
#027360:00000000000000000000532300000000
#027371:00000000000000130033000000000000
#0273b1:00000000000000000000532300000000
#028361:00000013000000000000000000000000
#0283b1:00000000002300000000000000000000
#0293b1:13
#029371:0023000000000000
#029320:0013000000000000
#029360:00230000
#0293b1:00130000
#029371:0000002300000000
#0293c1:00000000000000000000001200002200
#030321:13
#030361:0023000000000000
#0303b0:0013000000000000
#030370:00230000
#030321:00130000
#030361:0000002300000000
#031351:00000000000000130053000000000000
#031341:0055
#031361:000000000000000000000000000000000000000000000000000000000000000000000000000000000000000000000000000000000000000000000000000000000000000000000000000000000000000000000000000000000000000000000000000000000000000000000000000000000000000000000000000000000000000000000000000000000000000000000000000000000000000000000000000000000000000000000000000000000000000000000000000000000000000000000000000000000000000000000000000000000000000000000000000000000000000000000000000000000000000000000000000000000000000000000000000000000000000000000000000000000000000000000000000000000000000000000000000000000000000000000000000000000000000000000000000000000000000000000000000000000000000000000000000000000000000000000000000000000000000000000000000000000000000000000000000000000000000000000000000000000000000000000000000000000000000000000000000000000000000000000000000000000000000000000000000000000000000000000000000000000000000000000000000000000000000000000000000000000000000000000000000000000000000000000000000000000000000000000000000000000000000000000000000000000000000000000000000000000000000000000000000000000000000000000000000000000000000000000000000000000000000000000000000000000000000000000000000000000000000000000000000000000000000000000000000000000000000000000000000000000000000000000000000000000000000000000000000000000000000000000000000000000000000000000000000000000000000000000000000000000000000000000000000000000000000000000000000000000000000000000000000000000000000000000000000000000000000000000000000000000000000000000000000000000000000000000000000000000000000000000000000000000000000000000000000000000000000000000000000000000000000000000000000000000000000000000000000000000000000000000000000000000000000000000000000000000000000000000000000000000000000000000000000000000000000000000000000000000000000000000000000000000000000000000000000000000000000000000000000000000000000000000000000000000000000000000000000000000000000000000000000000000000000000000000000000000000000000000000000000000000000000000000000000000000000000000000000000000000000000000000000000000000000000000000000000000000000000000000000000000000000000000000000000000000000000000000000000000000000000000000003200000000000000000000000000000000000000000000000000000000000000000000000000000000000000000000000000000000000000000000000000000000000000000000000000000000000000000000000000000000000000000000000000000000000000000000000000000000000000000000000000000000000000000000000000000000000000000000000000000000000000000000000000000000000000000000000000000000000000000000000000000000000000000000000000000000000000000000000000000000000000000000000000000000000000000000000000000000000000000000220000000000000000000000000000000000000000000000000000000000000000000000000000000000000000000000000000000000000000000000000000000000000000000000000000000000000000000000000000000000000000000000000000000000000000000000000000000000000000000000000000000000000000000000000000000000000000000000000000000000000000000000000000000000000000000000000000000000000000000000000000000000000000000000000000000000000000000000000000000000000000000000000000000000000000000000000000000000000000000000000000000000000000000000000000000000000000000000000000000000000000000000000000000000000000000000000000000000000000000000000000000000000000000000000000000000000000000000000000000000000000000000000000000000000000000000000000000000000000000000000000000000000000000000000000000000000000000000000000000000000000000000000000000000000000000000000000000000000000000000000000000000000000000000000000000000000000000000000000000000000000000000000000000000000000000000000000000000000000000000000000000000000000000000000000000000000000000000000000000000000000000000000000000000000000000000000000000000000000000000000000000000000000000000000000000000000000000000000000000000000000000000000000000000000000000000000000000000000000000000
#0313b0:00000000000000122200000000000000
#0313a0:0000000000000000000000000000005400000000000000000000000000000000
#0313a0:00000000000000000012000000000000
#0313b0:0000000000520000
#031380:00000000000000000000002200000000
#031320:0000000000000013
#031350:00000000000000000000000000000053
#032320:23
#0323b1:1323000000000000
#032381:00530000000000000000000000000000
#032320:0013230000000000
#032350:00000053000000000000000000000000
#0323b1:0000132300000000
#032381:00000000005300000000000000000000
#033371:13
#033321:0023000000000000
#033360:0013000000000000
#0333b0:00230000
#033371:00130000
#033321:0000002300000000
#033321:00000000000000000000001200002200
#034361:13
#0343b1:0023000000000000
#034370:0013000000000000
#034320:00230000
#034361:00130000
#0343b1:0000002300000000
#0353b1:0000000000000013
#035381:00000000000000000000000000000053
#0363b1:23
#036320:1323000000000000
#036350:00530000000000000000000000000000
#0363b1:0013230000000000
#036381:00000053000000000000000000000000
#036320:0000132300000000
#036350:00000000005300000000000000000000
#0373b0:0013000000000000
#0373a0:00000033000000000000000000000000
#037390:00330000
#037380:00000000003300000000000000000000
#037370:0000002300000000
#037361:0013000000000000
#037351:00000033000000000000000000000000
#037341:00330000
#037331:00000000003300000000000000000000
#037321:0000002300000000
#038321:0013000000000000
#038331:00000033000000000000000000000000
#038341:00330000
#038351:00000000003300000000000000000000
#038361:0000002300000000
#038370:0013000000000000
#038380:00000033000000000000000000000000
#038390:00330000
#0383a0:00000000003300000000000000000000
#0383b0:0000002300000000
#040320:00000000000000000000132300000000
#0403b0:00000000000000000000000000132300
#041370:0013002300000000
#041390:00000033000000000000000000000000
#0413b0:00330000
#0413a0:00000000003300000000000000000000
#041380:00000000000000001222000000000000
#041331:00000000000000000012220000000000
#0413b0:00000000000000000000122200000000
#042360:0013002300000000
#042340:00000033000000000000000000000000
#042320:00330000
#042330:00000000003300000000000000000000
#042360:00000000000000001222000000000000
#0423b1:00000000000000000012220000000000
#042330:00000000000000000000122200000000
#043380:00000000000000001222000000000000
#043331:00000000000000000012220000000000
#0433b0:00000000000000000000122200000000
#0443a0:00000000000000000000142400000000
#044320:00000000000000000000000000142400
#0453c0:00000000000000000000001200002200
#046320:00000012002200000000000000000000
#0473c0:00000012000000000000000000000000
#047380:00000000002200000000000000000000
#047320:00000000000000000000001200000000
#047360:0000000000000022
#048380:00000012000000000000000000000000
#0483c0:00000000002200000000000000000000
#048361:00000012000000000000000000000000
#048321:00000000002200000000000000000000
#049381:12
#0493c1:0022000000000000
#049360:0012000000000000
#049320:00220000
#049381:00120000
#0493c1:0000002200000000
#049360:0000001200000000
#049320:0022
#049381:0012
#0493c1:0000000000220000
#049320:0000000000120022
#0493c1:00000000000000000000001200002200
#050321:1323000000000000
#050351:00330000000000000000000000000000
#050380:0013230000000000
#0503b0:00000033000000000000000000000000
#050321:0000132300000000
#050351:00000000003300000000000000000000
#0513b1:1323000000000000
#051381:00330000000000000000000000000000
#051350:0013230000000000
#051320:00000033000000000000000000000000
#0513b1:0000132300000000
#051381:00000000003300000000000000000000
#051371:0000000000000013
#052321:5323000000000000
#0523b0:13
#052370:00005323000000000000000000000000
#052340:00000000000000120033000000000000
#052330:0054
#052350:000000000000000000000000000000000000000000000000000000000000000000000000000000000000000000000000000000000000000000000000000000000000000000000000000000000000000000000000000000000000000000000000000000000000000000000000000000000000000000000000000000000000000000000000000000000000000000000000000000000000000000000000000000000000000000000000000000000000000000000000000000000000000000000000000000000000000000000000000000000000000000000000000000000000000000000000000000000000000000000000000000000000000000000000000000000000000000000000000000000000000000000000000000000000000000000000000000000000000000000000000000000000000000000000000000000000000000000000000000000000000000000000000000000000000000000000000000000000000000000000000000000000000000000000000000000000000000000000000000000000000000000000000000000000000000000000000000000000000000000000000000000000000000000000000000000000000000000000000000000000000000000000000000000000000000000000000000000000000000000000000000000000000000000000000000000000000000000000000000000000000000000000000000000000000000000000000000000000000000000000000000000000000000000000000000000000000000000000000000000000000000000000000000000000000000000000000000000000000000000000000000000000000000000000000000000000000000000000000000000000000000000000000000000000000000000000000000000000000000000000000000000000000000000000000000000000000000000000000000000000000000000000000000000000000000000000000000000000000000000000000000000000000000000000000000000000000000000000000000000000000000000000000000000000000000000000000000000000000000000000000000000000000000000000000000000000000000000000000000000000000000000000000000000000000000000000000000000000000000000000000000000000000000000000000000000000000000000000000000000000000000000000000000000000000000000000000000000000000000000000000000000000000000000000000000000000000000000000000000000000000000000000000000000000000000000000000000000000000000000000000000000000000000000000000000000000000000000000000000000000000000000000000000000000000000000000000000000000000000000000000000000000000000000000000000000000000000000000000000000000000000000000000000000000000000000000000000000000000000000000005200000000000000000000000000000000000000000000000000000000000000000000000000000000000000000000000000000000000000000000000000000000000000000000000000000000000000000000000000000000000000000000000000525400000000000000000000000000000000000000000000000000000000000000000000000000000054520000000000000000000000000000000000000000000000000000000000000000000000000000000000000000000000000000000000000000005254000000000000000000000000000000000000000000000000000000000000000000000000000000240000000000000000000000000000000000000000000000000000000000000000000000000000000000000000000000000000000000000000000000000000000000000000000000000000000000000000000000000000000000000000000000000000000000000000000000000000000000000000000000000000000000000000000000000000000000000000000000000000000000000000000000000000000000000000000000000000000000000000000000000000000000000000000000000000000000000000000000000000000000000000000000000000000000000000000000000000000000000000000000000000000000000000000000000000000000000000000000000000000000000000000000000000000000000000000000000000000000000000000000000000000000000000000000000000000000000000000000000000000000000000000000000000000000000000000000000000000000000000000000000000000000000000000000000000000000000000000000000000000000000000000000000000000000000000000000000000000000000000000000000000000000000000000000000000000000000000000000000000000000000000000000000000000000000000000000000000000000000000000000000000000000000000000000000000000000000000000000000000000000000000000000000000000000000000000000000000000000000000000000000000000000000000000000000000000000000000000000000000000000000000000000000000000000000000000000000000000000000000000000
#0523a1:00000000000000120033000000000000
#052391:000000000000000000000000000000000000000000000000000000000000000000000000000000000000000000000000540000000000000000000054005400005400240000000000000000000000000000000000000000000000000000000000
#0523b1:000000000000000000000000000000000000000000000000000000000000000000000000000000000000000000000000000000000000000000000000000000000000000000000000000000000000000000000000000000000000000000000000000000000000000000000000000000000000000000000000000000000000000000000000000000000000000000000000000000000000000000000000000000000000000000000000000000000000000000000000000000000000000000000000000000000000000000000000000000000000000000000000000000000000000000000000000000000000000000000000000000000000000000000000000000000000000000000000000000000000000000000000000000000000000000000000000000000000000000000000000000000000000000000000000000000000000000000000000000000000000000000000000000000000000000000000000000000000000000000000000000000000000000000000000000000000000000000000000000000000000000000000000000000000000000000000000000000000000000000000000000000000000000000000000000000000000000000000000000000000000000000000000000000000000000000000000000000000000000000000000000000000000000000000000000000000000000000000000000000000000000000000000000000000000000000000000000000000000000000000000000000000000000000000000000000000000000000000000000000000000000000000000000000000000000000000000000000000000000000000000000000000000000000000000000000000000000000000000000000000000000000000000000000000000000000000000000000000000000000000000000000000000000000000000000000000000000000000000000000000000000000000000000000000000000000000000000000000000000000000000000000000000000000000000000000000000000000000000000000000000000000000000000000000000000000000000000000000000000000000000000000000000000000000000000000000000000000000000000000000000000000000000000000000000000000000000000000000000000000000000000000000000000000000000000000000000000000000000000000000000000000000000000000000000000000000000000000000000000000000000000000000000000000000000000000000000000000000000000000000000000000000000000000000000000000000000000000000000000000000000000000000000000000000000000000000000000000000000000000000000000000000000000000000000000000000000000000000000000000000000000000000000000000000000000000000000000000000000000000000000000000000000000000000000000000000000000000000000000000000005200000000000000000000000000000000000000000000000000000000000000000000000000000000000000000000000000000000000000000000000000000000000000000000000000000000000000000000000000000000000000000000000000520000000000000000000000000000000000000000000000000000000000000000000000000000000000520000000000000000000000000000000000000000000000000000000000000000000000000000000000000000000000000000000000000000005200000000000000000000000000000000000000000000000000000000000000000000000000000000000000000000000000000000000000000000000000000000000000000000000000000000000000000000000000000000000000000000000000000000000000000000000000000000000000000000000000000000000000000000000000000000000000000000000000000000000000000000000000000000000000000000000000000000000000000000000000000000000000000000000000000000000000000000000000000000000000000000000000000000000000000000000000000000000000000000000000000000000000000000000000000000000000000000000000000000000000000000000000000000000000000000000000000000000000000000000000000000000000000000000000000000000000000000000000000000000000000000000000000000000000000000000000000000000000000000000000000000000000000000000000000000000000000000000000000000000000000000000000000000000000000000000000000000000000000000000000000000000000000000000000000000000000000000000000000000000000000000000000000000000000000000000000000000000000000000000000000000000000000000000000000000000000000000000000000000000000000000000000000000000000000000000000000000000000000000000000000000000000000000000000000000000000000000000000000000000000000000000000000000000000000000000000000000000000000000000000000000000000000000000000000000000000000000000000000000000000000000000000000000
#052381:0000000000000013
#0523b1:00000000000000000000000000000033
#0533b1:33
#053381:00332300000000000000000000000000
#053320:13000033330000000000000000000000
#053350:00333300003323000000000000000000
#0533b1:00130000
#053381:00000000003323000000000000000000
#0543b1:13
#054381:00330000000000000000000000000000
#054391:0025000000000000
#054350:0013000000000000
#054320:00000033000000000000000000000000
#054330:00250000
#0543b1:00130000
#054381:00000000003300000000000000000000
#054391:0000002500000000
#055321:1325000000000000
#055351:00330000000000000000000000000000
#055380:0013250000000000
#0553b0:00000033000000000000000000000000
#055321:0000132500000000
#055351:00000000003300000000000000000000
#055361:0000000000000013
#0563b1:5323000000000000
#056320:13
#056360:00005323000000000000000000000000
#056350:0000000000000013
#056320:00000000000000000000000000000033
#057320:33
#057350:00332300000000000000000000000000
#0573b1:13000033330000000000000000000000
#057381:00333300003323000000000000000000
#057320:00130000
#057350:00000000003323000000000000000000
#058360:0013000000000000
#058380:00000033330000000000000000000000
#0583b0:00000000003323000000000000000000
#058320:00000000000000000000000000142400
#059370:0013000000000000
#059350:00000033330000000000000000000000
#059320:00000000003323000000000000000000
#0593a0:00000000000000000000000000142400
#060360:0013000000000000
#060380:00000033330000000000000000000000
#0603b0:00000000003323000000000000000000
#0613b0:1323
#061390:00330033003300330000000000000000
#061370:0033003300000000
#0613a0:00330000
#061361:1323
#061341:00330033003300330000000000000000
#061321:0033003300000000
#061351:00330000
#062321:00001300003323000000000000000000
#062361:00000033330000000000000000000000
#062361:00000000000000000000000000140000
#0623a1:0000000000000024
#0633b1:00001300003323000000000000000000
#063371:00000033330000000000000000000000
#063361:00000000000000000000000000140000
#063321:0000000000000024
#064321:00001300003323000000000000000000
#064361:00000033330000000000000000000000
#065381:0000001300003200
#0653b1:00000000000000000053000000000000
#066381:22
#065350:0000001300000000
#065320:00000000000000000053000000000000
#065360:00000032
#066360:22
