This file was generated by Ched 2.6.2.0.
#TITLE ""
#ARTIST ""
#DESIGNER ""
#DIFFICULTY 0
#PLAYLEVEL
#SONGID ""
#WAVE ""
#WAVEOFFSET 0
#JACKET ""
#REQUEST "ticks_per_beat 480"
#00002: 4
#BPM01: 127
#00008: 01
#TIL00: ""
#HISPEED 00
#MEASUREHS 00
#0031a:14
#00318:0014
#00314:00140000
#00312:00000014
#0011a:14141414
#00212:14141414
#0051a:14141414
#00514:00001414
#00510:41
#00612:14141414
#00618:00001414
#0071a:14141414
#00714:00001414
#00912:14140000
#00914:00001414
#0091a:00001414
#0101a:14140000
#01018:00001414
#01012:00001414
#01112:14140000
#01114:00001414
#0111a:00001414
#01314:14
#01312:00001414
#01318:0000140000140000
#01310:41
#01418:14
#0141a:00001414
#01414:0000140000140000
#01514:14
#01512:00001414
#01518:0000140000140000
#01712:14000014
#01714:0014
#0171a:00140000
#01718:0000000000140000
#02918:0014000000000000
#02914:00140000
#0291a:0000001400000000
#02912:24
#02910:41
#01612:14
#0161a:14
#02012:14
#02014:00140014
#0201a:14
#02018:0000140000140000
#03712:14
#0371a:0014
#04914:13130000
#04919:0013000000000000
#00812:14
#0121a:14
#02312:14
#02314:0014
#02712:14
#0271a:0014
#0301a:14
#03012:0000001400000000
#03018:00140000
#03014:0014000000000000
#03112:14
#0311a:0000001400000000
#03114:00140000
#03118:0014000000000000
#0321a:14140000
#03214:0014001400001400
#03218:0014
#03314:0014001400000000
#03318:00140000
#0331a:2414
#03612:14140000
#03618:0014001400001400
#03614:0014
#03610:41
#0401a:1414
#04012:1414
#04016:00140014
#04412:1414
#0441a:1414
#04416:00140014
#0451a:14140000
#04514:0014000000000000
#04519:0014
#04513:00000014
#04612:14140000
#04618:0014000000000000
#04613:0014
#04619:00000014
#0471a:14
#04718:00140000
#04712:0014000000000000
#04719:0014
#04713:00000014
#04814:00140000
#0481a:0014000000000000
#04812:14
#04813:0014
#04819:00000014
#05018:0014000000000000
#05014:00141400
#0501a:0000001400000000
#05012:24
#0501f:21
#0511a:14
#05118:00141400
#05114:0014000000000000
#05112:0000001400000000
#05212:14
#05214:00141400
#05218:0014000000000000
#0521a:0000001400000000
#05210:41
#05414:0014000000000000
#05418:00141400
#05412:0000001414000000
#0541a:24
#05512:14
#0551a:0000001414000000
#05514:00141400
#05518:0014000000000000
#0561a:14
#05612:0000001414000000
#05618:00141400
#05614:0014000000000000
#05814:14
#05818:0014
#06118:14
#06112:0014000000000000
#0611a:00140000
#06114:0000001400000000
#0651a:0014000000000000
#06518:0000001400000000
#06514:14
#06512:00140000
#06613:1a
#0411f:11
#0411a:14
#04112:0014
#03418:0014001400000000
#03414:00140000
#03412:1414
#03514:0014000000000000
#03518:00140000
#03512:0000001400000000
#0351a:1414
#03812:14
#0381a:0014
#0421a:14
#04212:0014
#06014:14
#06018:0014
#06012:0014000000000000
#0601a:0000000000140000
#06218:14
#06214:0014
#06418:14
#06414:0014
#0641a:0014000000000000
#06412:0000000000140000
#02814:14
#02818:0014
#0391a:0014
#03914:0014
#03912:14
#03918:14
#04312:0014
#04318:0014
#0431a:14
#04314:14
#0181a:14000014
#01818:0014
#01812:00140000
#01814:0000000000140000
#01912:14000014
#01914:0014
#0191a:00140000
#01918:0000000000140000
#0531a:14140000
#05314:14140000
#05312:00001414
#05318:00001414
#05712:14140000
#05718:14140000
#0571a:00001414
#05714:00001414
#05914:14
#05918:0014
#06318:14
#06314:0014
#0241a:14
#02418:0014
#02110:41
#01652:54
#0165a:54
#02052:54
#02054:00240000
#0205a:64
#02058:00240000
#03752:64
#0375a:0054
#00852:54
#0125a:54
#02352:64
#02354:0024
#0275a:0064
#02752:64
#03258:0014
#03254:00000014
#03654:0014
#03658:00000014
#0335a:0054
#05054:0054
#05452:0064
#05458:0064
#0555a:0054
#05554:0054
#05652:0064
#05658:0064
#05854:54
#05858:0064
#06558:0000006400000000
#03452:0064
#0355a:0054
#03852:64
#0385a:0054
#0415a:54
#04152:0064
#0425a:54
#04252:0064
#06054:54
#06058:0064
#0605a:0000000000240000
#06052:0024000000000000
#06258:64
#06254:0054
#06458:64
#06454:0054
#0645a:0024000000000000
#06452:0000000000240000
#02854:54
#02858:0054
#0395a:0054
#03954:0054
#03952:64
#03958:64
#04352:0064
#04358:0064
#0435a:54
#04354:54
#05158:0064
#05254:0054
#05954:54
#05958:0064
#06358:64
#06354:0054
#0245a:54
#02458:0024
#004380:14000024
#008320:14
#008340:0024
#0123a0:14
#012380:0024
#016320:14
#016340:0024
#0163a1:14
#016381:0024
#020321:1424
#020341:00540000
#0203a0:1424
#020380:00540000
#021320:14000024
#021340:00343400
#0223a0:14000024
#022380:00343400
#023320:14000024
#023340:00343400
#0243a0:14000024
#024380:00343400
#025320:14
#025340:00240000
#0253a0:0014
#025380:00000024
#026340:14
#026320:00240000
#026380:0014
#0263a0:00000024
#027320:14
#027340:00240000
#0273a0:0014
#027380:00000024
#028340:14
#028320:00240000
#028380:0014
#0283a0:00000024
#029320:00001424
#0303a0:00001424
#031320:00001424
#0333a0:0014
#033380:00000024
#034320:0014
#034340:00000024
#0353a0:0014
#035380:00000024
#037320:14
#037340:00240000
#0373a0:0014
#037380:00000024
#038320:14
#038340:00240000
#0383a0:0014
#038380:00000024
#039320:14
#039340:00240000
#039381:14
#0393a1:00240000
#0393a1:0014
#039381:00000024
#039340:0014
#039320:00000024
#0413a0:14
#041380:00240000
#041320:0014
#041340:00000024
#0423a0:14
#042380:00240000
#042320:0014
#042340:00000024
#0433a0:14
#043380:00240000
#043341:14
#043321:00240000
#043321:0014
#043341:00000024
#043380:0014
#0433a0:00000024
#049390:00000000000013003300333300002300
#050340:0014
#050320:00000024
#051380:0014
#0513a0:00000024
#052340:0014
#052320:00000024
#054320:0014
#054340:00000024
#054381:0014
#0543a1:00000024
#0553a1:0014
#055381:00000024
#055340:0014
#055320:00000024
#056320:0014
#056340:00000024
#056381:0014
#0563a1:00000024
#058341:14
#058321:00240000
#058381:0014
#0583a1:00000024
#059341:14
#059321:00240000
#059381:0014
#0593a1:00000024
#060341:14240000
#060321:0054000000000000
#060381:00001424
#0603a1:0000000000540000
#062381:14
#0623a1:00240000
#062341:0014
#062321:00000024
#063381:14
#0633a1:00240000
#063341:0014
#063321:00000024
#064381:14240000
#0643a1:0054000000000000
#064341:00001424
#064321:0000000000540000
#065381:0000001400000000
#0653a1:00000024
