This file was generated by Ched 2.6.2.0.
#TITLE ""
#ARTIST ""
#DESIGNER ""
#DIFFICULTY 0
#PLAYLEVEL
#SONGID ""
#WAVE ""
#WAVEOFFSET 0
#JACKET ""
#REQUEST "ticks_per_beat 480"
#00002: 4
#BPM01: 148
#00008: 01
#TIL00: ""
#HISPEED 00
#MEASUREHS 00
#00519:14
#00613:14
#00713:14
#03818:2616
#0381f:21
#03918:16
#03910:41
#04012:1616
#04112:16
#04218:1616
#04312:1616
#04418:16
#04412:0016
#04518:16
#04612:2616
#04712:16
#04818:1616
#04810:41
#04918:16
#05212:14
#0521a:14
#0121a:14
#0141a:14
#01410:41
#01314:14
#01514:14
#01618:14
#01712:14
#01818:14
#01912:14
#02019:14
#02010:41
#02119:14
#02413:14
#02513:14
#02818:14
#0281f:11
#02914:14
#03018:14
#03114:14
#0321a:14
#03312:14
#00419:24
#00810:41
#02610:41
#008390:14
#009390:24
#010330:14
#011330:24
#022390:14
#023390:0024
#026330:14
#027330:0024
#0343a0:14
#0353a0:24
#036320:14
#037320:24
#050320:1626
#051380:1626
#053340:14
#054340:3424000000000000
