This file was generated by Ched 2.6.3.0.
#TITLE ""
#ARTIST ""
#DESIGNER ""
#DIFFICULTY 0
#PLAYLEVEL
#SONGID ""
#WAVE ""
#WAVEOFFSET 0
#JACKET ""
#REQUEST "ticks_per_beat 480"
#00002: 4
#BPM01: 148
#00008: 0100000000000001
#TIL00: ""
#HISPEED 00
#MEASUREHS 00
#0071b:00130000000000000000000000000000
#00716:13
#00714:00000013000000000000000000000000
#00717:00000000000000130000000000000000
#00719:00130000
#00712:0000001314000000
#0071a:00000014
#00816:00000000000000000013000000001400
#0081b:00231300
#00812:0000001300001300
#00817:00000000000000000000001300000000
#00813:00330000000000000000000000000000
#00814:0033000000000000
#00815:00000033000000000000000000000000
#00810:41
#01218:00131300
#01215:00000000000000000013000000000000
#01212:0000001300000000
#0121b:23
#01318:00000000001300001600000000000000
#01316:14
#01312:0013000000001600
#01315:00000000130000130000000000000000
#0131b:0013000000000000
#02719:00000014
#02713:00000014
#02712:0026
#0421b:0000001300000000
#04212:13
#04217:13
#04216:0000001300000000
#04213:0000000000000014
#04219:0000000000000014
#02814:1313
#02816:00130000
#02812:00000013
#0281b:0000001313000000
#0281f:11
#02819:23
#02916:00130000
#02914:13
#02918:0000000000130000
#02915:00000013
#02919:1300000000000013
#0291b:0000001300000000
#02912:0000000000000023
#03019:0000001300000013
#03017:0013000000000000
#0301b:0000000000130000
#03014:0000001313000000
#03117:0013000000000000
#03118:0000000000130000
#03114:0000001300000013
#03112:13
#0311b:0000000000000023
#03214:0000001300000013
#03216:0013000000000000
#03212:0000000000130000
#03219:0000001313000000
#03316:0013000000000013
#03314:00000000001300000000000000000000
#0331b:1300000000130013
#03319:0000001300000000
#03313:00000013
#03412:0013131300000000
#0341b:0000000000131313
#03514:0013000000000000
#03513:00130000
#03519:0000000000130000
#0351a:00000013
#0351b:0000000000000013
#03512:0000001300000000
#03619:00000000130000001200001400000000
#03614:00130000
#03615:0012
#03613:00000000000000000000001400000000
#0381a:2400001400240013
#03815:0000000000000013
#03812:0000242400000000
#0381f:21
#03912:0013000000131300
#03917:0013000000000000
#0391b:0000001313000000
#03918:00000013
#03915:0013
#03910:41
#01918:000000140014000000000000
#01914:000014240000
#02012:1300001300000000
#02018:0013000000000000
#02015:00000000130000000000001300000000
#0201b:1313
#02010:41
#0211b:0013000000000013
#0211a:00130000
#02119:0000001300000000
#02112:0000000013000013
#02115:00001300000000000000001300000000
#02118:0000000013130000
#02113:0000001300000000
#02114:00130000
#01512:13
#01516:00131300
#01517:13000013
#0151b:0013
#05416:0013000000000000
#05112:0013001300000000
#05115:1313
#05118:0013001300000000
#0511b:1313
#04518:0000001300000000
#04515:00130000
#0451b:00001313
#04516:00001313
#04517:0000000000130013
#04512:0000000000130013
#04013:0000000000000013
#04018:0000000000000013
#04019:13
#04012:2400001400240000
#0401a:0000242400000000
#0411b:0013000000131300
#04116:0013000000000000
#04112:0000001313000000
#04115:00000013
#04118:0013
#0441b:1300000000000013
#04414:0000000000000013
#04417:0013
#04412:1300000000130000
#04419:0000000000130000
#04416:00000013
#04418:0013000000000000
#04415:0013000000000000
#04612:1400242400000015
#04618:0000000000000015
#04616:0014000014000000
#0461a:2400001400240000
#0041b:0013130000131300
#00412:0000001313000013
#00418:23000000000000130000000000000000
#00415:00000013000000000000001300000000
#00515:00130000000000130000130000000000
#0051b:0000000013000013
#00518:00000013000013000000001300000000
#00512:00130013
#00612:00130000000000000000000013000000
#00618:00001300000000000000001300001400
#00615:00000013000000000000130000000000
#0061b:00000000130000000013000000000000
#00614:0000001400000000
#01015:13000000000000001300000000130000
#01018:0013001300001300
#0101b:1300000000000013
#01012:00000000000013000000000000000013
#01115:0000130013130000
#01118:00001300000013000013001300000000
#0111b:00130013
#01112:0013001300001300
#00915:0000000000000013
#00919:00000014
#00913:0000000000140000
#00912:13
#0091b:13
#00918:00000000000000000000000000000013
#01615:00131300
#0161b:1300001300000000
#01618:00000000000000000013000000000000
#01612:23
#0181b:13000000000000000000001300000000
#01818:00130000
#01812:1300001300000000
#01816:00000000000000001300001300000000
#05212:00000014000013000000001300000000
#05217:00000000001300000000000000000000
#0521a:00000014000000000000000000001300
#05218:00000013
#05214:00000000000000001300000000130000
#05216:00000000000000000000140000000013
#05219:00000000000000130000000000000000
#0521b:00000000000000000013000000000000
#04315:0000001300000000
#04318:0000001300000000
#04314:00130000
#04312:0013000000000000
#04319:00130000
#0431b:0013000000000000
#04718:00120000000000000000000000000000
#04712:00120000000000000000000000000000
#04713:0015
#04719:0015
#04716:0000000000120000
#0471c:0000000000120000
#04818:0000000000000015
#04812:2400001400240015
#0481a:1400242400000000
#04816:0014000014000000
#04810:41
#0491c:00120000000000000000000000000000
#04918:0012
#04919:0000000000000000001400000000000000000000000000000000000000000000
#04916:00120000000000000000000000000000
#04912:0012
#04913:0000000000000000001400000000000000000000000000000000000000000000
#01412:13
#01415:00131300
#01418:00000000000000000013000000000000
#0141b:0000001300000000
#01410:41
#02218:13000000001300001300000000130000
#02215:00130000130000000013000013000000
#0221b:0013000000130000
#02212:0000001300000013
#05012:0000001300000013
#0501b:13
#05016:13
#05017:0000001300000000
#05018:0000000000000013
#02317:13
#02314:00130000000000000000000013000000
#0231b:0013000000000000
#02316:00130000
#02319:00000000001300000000000013000000
#02312:0000001300000000
#02318:0026
#01715:00000000001300000000000000000000
#01716:14
#0171b:0013000000000000
#01718:00000000130000130000000016000000
#01712:0013000016000000
#0241b:1300001300000000
#02415:0013000000000000
#02418:00000000130000000000001300000000
#02412:1313
#02512:0013000000000013
#02513:00130000
#02514:0000001300000000
#0251b:0000000013000013
#02518:00001300000000000000001300000000
#02515:0000000013130000
#0251a:0000001300000000
#02519:00130000
#05313:000000000033
#05314:000000000000000000000000000000000000003300000000
#05319:000000000000000000000033
#05318:000000000000000000000000000000000000000000000033
#02610:41
#04256:0000335300000000
#04252:53
#0425b:0000005300000000
#04257:5300000000430000
#02358:0016
#0235b:0043000000000000
#02352:0000003300000000
#02752:0043000016000000
#0275b:0000003300000000
#02755:0000003300000000
#02758:0043000000000000
#02854:5353
#02856:00230000
#02852:00000023
#02954:53
#02956:00230000
#02959:0000000000000063
#03059:0000006300000063
#03057:0023000000000000
#0305b:0000000000230000
#03157:0023000000000000
#03154:0000000000000053
#03254:0000005300000053
#03256:0023000000000000
#03252:0000000000230000
#03356:0023000000000000
#03354:00000000005300000000000000000000
#0335b:0000000000000053
#0385a:5400000000440000
#03852:0000345400000000
#03856:0000440000340000
#02055:00000000000000000000005300000000
#0205b:0053
#02052:0000000000000013
#01557:53
#01556:0063
#03552:0000005300000000
#0345b:0000000000000053
#03452:0000005300000000
#05152:0023005300000000
#05158:0023005300000000
#05155:6323
#0515b:6323
#0405a:0000446400000000
#04052:6400000000340000
#04056:0000340000440000
#04652:0000346400340055
#0465a:5400440000440000
#04658:0000000000000055
#04656:0024000024000000
#00654:0000003400000000
#00658:0000000000000044
#00752:0014
#0075a:00000014
#01055:53
#01058:0000006300000000
#0105b:00000000000000000043000000000000
#01052:00000033000000000000000000000033
#0115b:00000043
#01152:00000033
#0165b:23
#01852:23
#01856:00000000000000000000005300000000
#0185b:00000000000000000000005300000000
#01358:0046
#01352:00000036
#04358:0000005300000000
#04355:0000005300000000
#0445b:53
#04458:0023000000000000
#04452:63
#04455:0023000000000000
#00452:0000000000000033
#0055b:0000000000000043
#04752:00220000000000000000000000000000
#04758:00220000000000000000000000000000
#04753:0065
#04759:0065
#04756:0000000000220000
#0475c:0000000000220000
#04858:0000000000000065
#04852:6400340000340065
#04856:0024000024000000
#0485a:0000445400440000
#0495c:00220000000000000000000000000000
#04958:00002246
#04959:0000000000000000005400000000000000000000000000000000000000000000
#04956:00220000000000000000000000000000
#04952:00002246
#04953:0000000000000000005400000000000000000000000000000000000000000000
#00952:53
#0095b:53
#0225b:0043000000430000
#02252:0000003300000033
#05052:0000006300000000
#0505b:63
#05056:6300000000330000
#05057:0000436300000000
#05457:43
#05456:0033000000000000
#01752:0036
#01758:00000046
#01954:0014
#02458:00000000000000000000006300000000
#02452:0063
#0245b:0000000000000013
#02652:0013000000130000
#02658:0013000000130000
#02655:0000001300000013
#0265b:0000001300000013
#03752:16
#03758:16
#003340:0000000000001333
#003320:00000000000000000000000000330033
#004340:23
#008320:13
#008330:00330000000000000000000000000000
#008340:0033000000000000
#008350:00000033000000000000000000000000
#008360:00230000
#009320:13
#009350:0033002300000000
#0093b1:13
#009381:0033002300000000
#010351:13
#010321:00000023000000000000000000000000
#010381:0000001300000000
#0103b1:00000000000000000023000000000000
#012321:13
#012351:00230000
#0123b1:00000000000000000000001300002300
#012320:00000000000000000000001300002300
#0143b0:13
#014380:00230000
#014320:00000000000000000000001300002300
#0143b1:00000000000000000000001300002300
#015371:13
#0153b1:00230000
#015361:0013
#015321:00000023
#0163b1:13
#016381:00230000
#016321:00000000000000000000001300002300
#0163b0:00000000000000000000001300002300
#018320:13
#018350:00230000
#0183b0:00000000000000001300003300000000
#018370:0000000000000023
#018361:00000000000000000000001300000000
#018321:0000000000000023
#0203b1:0013
#020381:00000000000000000000002300000000
#020350:00000000000000000000001300000000
#020320:0000000000000023
#024320:0013
#024350:00000000000000000000002300000000
#024381:00000000000000000000001300000000
#0243b1:0000000000000023
#026321:13332300000000000000000000000000
#026380:13332300000000000000000000000000
#0263b0:00000000133323000000000000000000
#026351:00000000133323000000000000000000
#026321:00000000000000001333230000000000
#026380:00000000000000001333230000000000
#0263b0:00000000000000000000000013332300
#026351:00000000000000000000000013332300
#027321:13332300000000000000000000000000
#027380:13332300000000000000000000000000
#0273b0:00000000133323000000000000000000
#027351:00000000133323000000000000000000
#028341:1353
#028361:00530000
#028321:00000053
#029341:5300002300000000
#029361:00530000
#029391:0000000000000013
#030371:0053000000000000
#030391:0000005300000053
#0303b1:0000000000530000
#031371:0053000000000000
#031391:0000002300000000
#031341:0000000000000013
#032361:0053000000000000
#032341:0000005300000053
#032321:0000000000530000
#033361:0053000000000000
#033341:00000000005300000000000000000000
#033321:0023
#0333b1:0000000000000013
#034371:0000002300000000
#034320:0000001300000000
#034360:0000000000000023
#0343b1:0000000000000013
#035371:0000002300000000
#035320:0000001300000000
#035360:0000000000000023
#036320:0000000000000016
#037320:26
#036381:0000000000000016
#037381:26
#037391:000000000000125353220000000000000000000000000000
#037381:000000000000000000000000005300530053000000000000000000000000000000000000000000000000000000000000
#037350:000000000000000000000000000000000000125300530053220000000000000000000000000000000000000000000000
#037340:000000000000000000005353000000000000000000000000
#0373b1:000000000000000000000000125353220000000000000000
#0373a1:000000000000000000000000000000000000000000000000005300530053000000000000000000000000000000000000
#037330:000000000000000000000000000000000000000000000000000000000000125300530053220000000000000000000000
#037320:000000000000000000000000000000005353000000000000
#037391:000000000000000000000000000000000000125353220000
#037381:000000000000000000000000000000000000000000000000000000000000000000000000005300530053000000000000
#037360:000000000000000000000000000000000000000000000000000000000000000000000000000000000000125300530053
#037350:000000000000000000000000000000000000000000005353
#038360:22
#0383a1:14
#038361:00240000
#038321:0000001400000000
#038361:0000000000240000
#040321:14
#040361:00240000
#0403a1:0000001400000000
#040361:0000000000240000
#042321:13
#042361:00230000
#042370:13
#0423b0:00230000
#0423b0:0000001300000000
#042370:0000000000230000
#042361:0000001300000000
#042321:0000000000230000
#043351:0000001300000000
#043321:00000023
#043380:0000001300000000
#0433b0:00000023
#0443b0:13230000
#044380:0053000000000000
#044321:13230000
#044351:0053000000000000
#0463a1:14240000
#046361:0054000000000000
#046321:0000001400240000
#046361:0054
#046381:0000000000000015
#047381:00520000250000000000000000000000
#046320:0000000000000015
#047320:00520000250000000000000000000000
#047330:00001525
#047360:0000000000520000
#047391:0015
#0473c1:0000000000520000
#0473a1:00000024
#048321:14240000
#048361:0054000000000000
#0483a1:0000001400240000
#048361:0054
#048381:0000000000000015
#0493c1:00520000000000000000000000000000
#049391:0000000000000000005400000000000000000000000000000000000000000000
#049381:00005226
#048320:0000000000000015
#049360:00520000000000000000000000000000
#049330:0000000000000000005400000000000000000000000000000000000000000000
#049320:00005226
#0503b0:13
#050370:00230000
#050361:13
#050321:00230000
#050321:0000001300000000
#050361:0000000000230000
#050370:0000001300000000
#0503b0:0000000000230000
#0513b0:13230000
#051380:0053000000000000
#051351:13230000
#051321:0053000000000000
#051321:0000001300230000
#051351:0053
#051380:0000001300230000
#0513b0:0053
#053380:000000000000125300530053220000000000000000000000000000000000000000000000000000000000000000000000
#053370:000000005353000000000000000000000000000000000000
#053361:000000000000125353220000000000000000000000000000
#053351:000000000000000000000000005300530053000000000000000000000000000000000000000000000000000000000000
#0533b0:000000000000000000000000000000000000125300530053220000000000000000000000000000000000000000000000
#0533a0:000000000000000000005353000000000000000000000000
#053331:000000000000000000000000125353220000000000000000
#053321:000000000000000000000000000000000000000000000000005300530053000000000000000000000000000000000000
#0533a0:000000000000000000000000000000000000000000000000000000000000125300530053220000000000000000000000
#053390:000000000000000000000000000000005353000000000000
#053361:00000013
#053341:000000000000000000000000000000000000003300000000
#053331:000000000033
#053321:0000000000000023
#0533b0:0000000000000013
#053390:000000000000000000000033
#053380:000000000000000000000000000000000000000000000033
#054370:23
