This file was generated by Ched 2.7.0.0.
#TITLE ""
#ARTIST ""
#DESIGNER ""
#DIFFICULTY 0
#PLAYLEVEL
#SONGID ""
#WAVE ""
#WAVEOFFSET 0
#JACKET ""
#REQUEST "ticks_per_beat 480"
#00002: 4
#BPM01: 148
#00008: 01
#TIL00: ""
#HISPEED 00
#MEASUREHS 00
#02314:00000014
#02318:13130000
#02312:0013001300000000
#0231a:0024
#02718:0013000000001400
#02715:13
#02712:00132400
#0271b:0000001300000000
#04218:13
#04215:0000001300000000
#0421b:0000000000000013
#0361b:00131300
#03612:00131300
#03618:00000000000000000000003313003300
#03615:00000000000000000000003313003300
#03115:1300130000130000
#03118:0013001300000013
#0381b:0000000000000013
#03815:0000000000000013
#0381a:24
#03812:0000002400000000
#0381f:21
#03912:0013001300000000
#03918:0013000013000000
#03915:0000000000130000
#0391b:00000013
#03910:41
#00718:1300001300000000
#0071a:00000014
#00712:0014
#00715:00000013000000000000000000000000
#02018:0013001300000000
#02015:00130000
#02012:1414
#02016:00000000000000000000001400000000
#0201a:0000000000000014
#02010:41
#02115:0013001300130000
#02118:00000000130000000000001300000000
#02112:0000000000000013
#0211b:0000000013000013
#05412:0016000000000000
#04518:00130000
#04515:0000001300000000
#0451b:00001313
#04512:0000000000130013
#04415:0013
#0441b:1300000000000013
#04412:00000013
#04418:0000000000130000
#00418:0013000000130016
#00415:00130013
#00412:0013
#0041b:0000001300000000
#01013:0000000000001414
#01012:13
#01018:00001300000000000013000000000000
#0101b:0000001300000000
#01015:00000013000000001300000000000000
#01019:00000000000000000000000000140014
#0111a:0014
#01116:0000000000140000
#01112:00000014
#01115:0013001300000000
#01118:00130000
#0081b:0013
#00815:00000034000000000000000013000000
#00818:0000000000130000
#00812:0000000000000013
#00813:00340000000000000000000000000000
#00814:0034000000000000
#00810:41
#0131a:0014
#01312:00000014
#01318:0013000000000000
#01315:13130000
#0461a:0000000000000014
#04614:0000002400000000
#04618:24
#03718:00130013
#03715:0000001300000013
#0371b:0013
#03712:0000000000130000
#04012:2400000000000013
#04018:0000000000000013
#0401a:0000002400000000
#0411b:0013001300000000
#04115:0013000013000000
#04118:0000000000130000
#04112:00000013
#05315:0013000000000000
#05318:0000130000000034
#05313:0000001400000000
#05319:00000000000000001400000000340000
#05312:0000000000140000
#05317:00000000000000000000000000000034
#01218:0000001300000013
#01212:00130000
#0121b:23
#01215:23
#01518:14
#0151a:0014
#01514:00140000
#01512:00000014
#0051b:00130000000000001300000000000000
#00518:00130013
#00515:00000013000000000000130000000000
#00512:0000001300000016
#01412:13
#01415:0000001300000013
#0141b:13
#01418:00130000
#01410:41
#01615:0000001300000013
#0161b:00130000
#01612:23
#01618:23
#01712:0014
#0171a:00000014
#01715:0013000000000000
#01718:13130000
#01812:1300000000000013
#0181b:1300000000000013
#01818:0000001300000000
#01815:00130000
#02218:13130000
#02212:0013001300000000
#0221b:00001313
#02215:0000000000130013
#02415:0013001300000000
#02418:00130000
#0241a:1414
#02416:00000000000000000000001400000000
#02412:0000000000000014
#02518:0013001300130000
#02515:00000000130000000000001300000000
#0251b:0000000000000013
#02512:0000000013000013
#0471b:00000013
#04712:0000001300000000
#04715:0013
#04718:1400000000130000
#04912:00000013
#0491b:0000001300000000
#04918:0013
#04915:0000000000130000
#04914:14
#02915:0000000000130013
#02918:00000013
#0291b:13
#00912:0000000000140000
#00916:00000014
#0091a:1400000000000014
#00917:00000014000000000000000000000000
#00918:0034000000000000
#02615:1313
#02618:0013000000000013
#02612:00130013
#0261b:0000001300130000
#02610:41
#03512:0013000000000014
#03515:00130000
#03518:0000001300000014
#0351a:0000000000140000
#03519:00000014
#03514:0000000000140000
#03513:00000014
#03312:00000013000000000000140000000000
#03316:00000014
#0331a:0000000000000014
#03315:13
#03415:0013000000000000
#03418:00130000
#0341b:0000001300000000
#03412:0000000000140000
#03416:00000014
#0341a:0000000000000014
#04312:0000001300000000
#04318:00130000
#04315:0013000000000000
#04812:0000000000000014
#04818:0000002400000000
#04814:24
#04810:41
#01916:000000143434000000000000
#01914:0028
#0521a:14
#05212:14
#0501b:13
#05015:0000001300000000
#05018:0000000000000013
#05112:13
#05118:0000001300000000
#02812:13
#02815:0000000000000013
#0281f:11
#0321b:00000013000000000000000000000000
#03218:0000000000000013
#03018:0000000000000013
#0061a:0033000000000000
#00619:00000033000000000000000000000000
#00618:00330000
#00613:0000000000330000
#00614:00000000000000000000003300000000
#00615:00000033
#04258:53
#04255:0000005300000000
#0075a:00000014
#00752:0014
#05452:0016000000000000
#01152:00000014
#0135a:0014
#01352:00000014
#0465a:0000140000000054
#04654:0000005400000000
#04658:54
#04652:0000000000140000
#01752:0014
#0175a:00000014
#0235a:0014
#0385a:54
#03852:0000005400000000
#04052:64
#0405a:0000006400000000
#04858:0000006400000000
#04854:64
#0485a:0000000000140000
#04852:0000140000000064
#02752:0014
#01552:00000014
#0155a:0014
#01554:00140000
#01558:14
#00957:00000024000000000000000000000000
#0095a:64
#0445b:63
#04352:0000006300000000
#04954:24
#04758:24
#03658:00000023
#0365b:0063
#03652:0053
#03655:00000023
#01956:00240000
#01954:0018
#03758:46
#03752:36
#0505b:63
#05055:0000005300000000
#05152:53
#05158:0000005300000000
#02955:0000000000000053
#0295b:63
#03355:53
#03352:00000023000000000000000000000000
#02852:53
#03158:0000000000000053
#0325b:00000023000000000000000000000000
#003330:0000000000001333
#003320:00000000000000000000000000330033
#004330:23
#0063b0:00130000000000000000000000000000
#0063a0:0033000000000000
#006390:00000033000000000000000000000000
#006380:0000332300000000
#006320:00000000000000000013000000000000
#006330:0000000000330000
#006340:00000000000000000000003300000000
#006350:0000000000003323
#008320:14
#008330:00340000000000000000000000000000
#008340:0034000000000000
#008350:00000034000000000000000000000000
#008360:00240000
#0093a0:1400002400000000
#009380:0034000000000000
#009370:00000054000000000000000000000000
#012350:00000000000000001300002300000000
#014380:00000000000000001300002300000000
#016380:00000000000000001300002300000000
#018350:00000000000000001300002300000000
#019360:000000143434000000000000
#019340:0028
#028320:13
#028350:0023
#0293b0:13
#029380:0023
#029350:0000000000000013
#030320:0023
#031380:0000000000000013
#0323b0:00000053000000000000000000000000
#032380:0023
#033350:1300002300000000
#033320:00000053000000000000000000000000
#0363b0:0013
#036380:00000000000000000000003353003300
#037380:26
#036321:0013
#036351:00000000000000000000003353003300
#037321:26
#0383a1:14
#038381:00240000
#038321:0000001400000000
#038341:0000000000240000
#040321:14
#040341:00240000
#0403a1:0000001400000000
#040381:0000000000240000
#042381:13
#0423b1:00230000
#042351:0000001300000000
#042321:0000000000230000
#043321:0000001300000000
#043351:00000023
#0443b1:13
#044381:00230000
#046381:14
#0463a1:00240000
#046341:0000001400000000
#046321:0000000000240000
#0463a1:0000000000000014
#047381:54
#0473a1:0024000000000000
#048341:14
#048321:00240000
#048381:0000001400000000
#0483a1:0000000000240000
#048321:0000000000000014
#049341:54
#049321:0024000000000000
#0503b1:13
#050381:00230000
#050351:0000001300000000
#050321:0000000000230000
#051321:13
#051351:00230000
#051381:0000001300000000
#0513b1:0000000000230000
#0533a1:00000014
#053391:00000000000000000000000000340000
#053381:0000000000000034
#053371:00000000000000000000000000000034
#054361:24
