This file was generated by Ched 2.6.2.0.
#TITLE ""
#ARTIST ""
#DESIGNER ""
#DIFFICULTY 0
#PLAYLEVEL
#SONGID ""
#WAVE ""
#WAVEOFFSET 0
#JACKET ""
#REQUEST "ticks_per_beat 480"
#00002: 4
#BPM01: 148
#00008: 01
#TIL00: ""
#HISPEED 00
#MEASUREHS 00
#00816:0000281300001300
#00817:00000000000000000013000000000000
#0081b:00000000000000000000001313000000
#00814:0018000000000013
#00812:18000000000000001313000000000000
#00819:00000000000000130000000000001300
#00813:00180000000000000000000000000000
#00815:00000018000000000000000000000000
#00810:41
#01215:0012
#01219:00000000000000001212000000000000
#01212:0013001300000000
#0121b:23130000
#01216:13
#01217:0013001300000000
#01319:00000000001200000000000000000000
#01316:14000013
#01312:0013000013000000
#01315:00000000120000130000000000000000
#0131b:0013000013000000
#01317:0000000000130000
#01314:0000000000130000
#02218:13000000001300001300000000130000
#02215:00130000130000000013000013000000
#0221b:0013001300130013
#02212:0013001300130013
#02318:13000000001300000000000000000000
#02315:00130000130000000000000000000000
#02312:001300132c000000
#0231b:0013001300000000
#02314:00000013
#02319:00000013
#02719:00000013
#02714:00000013
#0271b:13
#02712:001813002c000000
#02715:1300001900000000
#02718:00130000
#0421a:0000001400000000
#04212:14
#04217:13
#04216:0000001300000000
#04214:0000000000000013
#04219:0000000000000013
#02814:1313
#02816:00130000
#02812:00000013
#02819:2313
#0281a:0000001300000000
#0281b:0000130000130013
#02817:00000013
#0281f:11
#02916:00000013000000000000000000000000
#02914:13
#02918:0000000000130000
#02915:00000013
#02919:1200120000000013
#0291c:0012001200000000
#02912:0000000000000023
#03019:0000001300000013
#03017:0013000000000000
#0301b:0000000000130000
#03014:0000001300130000
#03016:0013
#03012:00130013
#03015:0000000000000012
#03117:0013000000000000
#0311b:0000000000130000
#03114:0000000000000013
#03112:1200120000130000
#03115:0012001200000000
#03118:0000000000000023
#03214:0000001300000013
#03216:0013000000000000
#03212:0000000000130000
#0321a:0000001300000000
#0321b:00131300
#03218:0000000000130013
#03219:00000013
#03316:0013000000130000
#0331b:0000000000130000
#03319:00000013
#03318:0000001300000000
#03317:0000000000000013
#03412:0013000013130000
#03414:00130000
#03416:1300001300000000
#0341b:1300000000000013
#03417:0013000013130000
#03419:00000013
#0361b:00130000
#03612:0000130000000015
#03615:0012
#03619:00000000000000001200001300001500
#03614:00000000000000000000001300000000
#00712:13130000000000160000000016000000
#00716:00000013130000000000000000000000
#0071b:00000013130000000000000000000000
#00718:0000000016000016
#00717:13130000000000000000000000000000
#00715:0000001600160000
#01912:000000151515250000000000
#01919:000000151515250000000000
#02012:1413
#0201b:00000000130000000000001300000000
#02017:0013
#02016:00001300130000000000001300000000
#02014:0000001300000000
#0201a:14000000000000130000000000000000
#02010:41
#0211b:0013001300000000
#02117:00131300
#02112:00000000130000001300131300000000
#02114:0000000000000013
#02116:0013001300000000
#02119:0000000000000013
#01517:0013001313001313
#0151b:13
#01516:1300130000130000
#0501b:0000001300000013
#05019:1300130000000000000000000000000000150000000000000000000000000000
#05018:0015000000000000000000000000000000000000000000000000000000000000
#05014:00000000131300000000000000000000
#05013:0000000000000000001500000000000000000000000000001300130000000000
#0501a:00000000000000001313000000000000
#05012:0000000013000000000000000000000000000000130000000015000000000000
#05016:1313
#05017:00130013
#05416:0014000000000000
#04412:1300000000120000
#0441b:13
#04415:0013000000000000
#04418:0013000000000000
#04414:0012
#0441a:00000012
#0441c:0000000000000012
#00412:0013130000131300
#00415:00000014000000000000001400000000
#00416:0000000000000013
#0041b:2300001313000013
#00419:00130013
#00417:00000000000000140000000000000000
#00414:0013
#00618:00130013000000000000130000000000
#00615:00001300000000000013001300000000
#00612:00130013
#00617:0000001300000000
#0061b:00130013
#00616:0000000000000013
#00614:0000001300000000
#00619:0000000000000013
#01018:00001300000000130000000013001300
#01015:00130000000013001319000000130000
#01012:13000019000000000013000013000019
#0101b:13000013000013000000000000000013
#00916:00000000000000000000000000001414
#00918:0013000000001300
#00915:0013000000130000
#00912:13
#0091b:13
#05215:0000161616161616
#0521b:00000000001300130000000000130013
#05212:00000000000000000013001300000013
#04715:0000001300000000
#04716:0013000000000000
#04717:0013
#0471b:00000013
#0471c:0012000000000000
#04712:00000000000000000012000000000000
#04719:0000000000130000
#04616:2300002300000014
#04612:0013000013000013
#04617:0013000013000000
#0461b:2300002300000000
#04315:0000001300000000
#04318:0000001300000000
#04314:00130000
#04312:00001300000000000013000000000000
#04319:00130000
#0431b:00001300000000000013000000000000
#0371b:00130013
#03712:1c000000000000000013000000000000
#03719:0000001300130013
#03714:00000000000000130000001300001300
#03716:00000000001300000000000000000000
#03717:0013
#03812:2300000000000013
#03817:0000002300230013
#03814:0013000000000000
#03819:0013
#03816:23230000
#0381b:0000002300000000
#0381f:21
#03916:13
#0391b:1300001300000000
#03918:00000013
#03910:41
#0051b:0013000000131300
#00519:00130000
#00515:0013
#00517:00000000000013000000001400001300
#00512:00000000000000130000000000001300
#00516:00000013000000000000000000000000
#00514:00000000001300000000000013000000
#00518:00130000000000000000000000000000
#01715:00000000001200000000000000000000
#01716:1400000000130000
#0171b:0013000013000000
#0171a:00120000
#01712:0013000013000000
#01718:00000000000000130000000000000000
#01717:00000013
#01719:00000000001200000000130000000000
#01714:00120000
#01812:13130000
#0181b:0013001300000000
#01817:13
#01816:0013001300000000
#01813:0000000014141414
#01819:00000000000000000014001400140000
#02615:1313
#02612:0013130000161300
#02619:0000001500000000
#02617:0000000000000017
#0261b:1313
#02618:00130013
#02610:41
#0241a:14
#02412:14000000130000000000001300000000
#02417:00001300130000000000001300000000
#02419:0000001300000000
#02416:0013
#0241b:0013
#02413:00000000000000130000000000000000
#03512:1300001313000000
#03517:1313
#03516:0013000000000000
#03514:00130000
#0351b:0013000000000000
#04515:0000131300130013
#04518:00000000001300000000001300000013
#0451b:00000000000013000013000000130000
#04512:00001313
#04918:0000001300000000
#04917:0013000000000000
#04916:0013
#04912:0012000000001300
#0491c:00000000000000000012000000000000
#04914:0000000000130000
#04816:0013000013000014
#0481b:0013000013000013
#04812:2300002300000000
#04817:2300002300000000
#04810:41
#05119:0013000013000000
#05118:000013000000000000000000001300000000000000000000
#0511b:13
#0511a:000000001300000000000013000000000000000000000000
#05114:0013000013000000
#05113:000013000000000000000000001300000000000000000000
#05116:13
#05115:000000001300000000000013000000000000000000000000
#05112:0000001300000000
#05117:0000001300000000
#01412:13130000
#01419:0012
#01415:00000000000000001212000000000000
#0141b:0013001300000000
#01417:13
#01416:0013001300000000
#01410:41
#01615:00000000000000001200001300000000
#0161a:0000000000000000000000000000000000001200000000000013000000000000
#01612:0013001300000000
#0161b:23130000
#01616:13
#01617:0013001300000000
#01613:0000000000000000000000000000000000000000000000000013000000000000
#01618:00000000000000000000001300000000
#01619:0012
#01614:00000000000000000012000000000000
#0401b:2300000000000013
#04016:0000002300230013
#04019:0013000000000000
#04014:0013
#04017:23230000
#04012:0000002300000000
#04117:13
#04112:1300001300000000
#04115:00000013
#02512:0013001300000000
#02516:00131300
#0251b:00000000130000001300131300000000
#02519:0000000000000013
#02517:0013001300000000
#02514:0000000000000013
#05319:0000000000000000000000000000000000000000000000000033000000000000
#05318:0000000000000000000000000000000000000000000000000000333333000000
#05317:0000000000000000000000000000000000000000000000000000000000330000
#05316:0000000000000000000000000000000000000000000000000000000000003333
#01112:000000000000000000000000000000000033000000000000
#01113:000033
#01115:000000000000000000000000000033330000000000000000
#01116:000000000000000000000000003300000000000000000000
#01117:000000000000000000000000000000000033000000000000
#01118:000033
#0111a:000000000000000000000000000033330000000000000000
#0111b:000000000000000000000000003300000000000000000000
#04256:0000345300440000
#04252:5400000000430000
#0425a:0000005400000000
#04257:53
#0425b:00330000
#02854:5353
#02856:00230000
#02852:00000023
#02954:53
#02956:00000023000000000000000000000000
#02959:0000000000000063
#0295c:0000001200000000
#03059:0000006300000063
#03057:0023000000000000
#0305b:0000000000230000
#03157:0023000000000000
#03154:0000000000000053
#03155:0000001200000000
#03254:0000005300000053
#03256:0023000000000000
#03252:0000000000230000
#03356:0023000000530000
#03352:0000000000000013
#03358:0000001300000000
#0205b:00000000000000000000006300000000
#02052:0000000063000013
#02056:00000000000000000000005300000000
#01557:0053005363006300
#01556:6300630000530000
#05456:0014000000000000
#05452:13
#03857:0000005300430063
#0385b:00430000
#03852:0000000000330063
#03856:53330000
#0465b:5300435300430000
#04656:5300435300430054
#04657:0023000023000000
#04652:0023000023000000
#00657:0000004300000000
#00656:0000000000000033
#01352:0033
#0135b:00005343
#01357:0000000000230000
#01356:00000033
#0475c:0022000000000000
#04755:0000005300000000
#04752:00000000000000000022000000000000
#0475b:00000013
#04358:0000005300000000
#04355:0000005300000000
#04352:00000000000000000023000000000000
#0435b:00000000000000000023000000000000
#04452:53330000
#0445b:53430000
#04455:0023000000000000
#04458:0023000000000000
#02352:000000331c000000
#0235b:0043000000000000
#01052:00000039000000000000000000000039
#01055:00000000000000000049000000000000
#03956:23
#0395b:2300004300430000
#03955:00004343
#05058:0025000000000000000000000000000000000000000000000000000000000000
#05059:6300630000000000000000000000000000250000000000000000000000000000
#05054:00000000636300000000000000000000
#05053:0000000000000000002500000000000000000000000000006300630000000000
#0505a:00000000000000006363000000000000
#05052:0000000000000000000000000000000000000000000000000025000000000000
#03752:1c
#0375b:00000043
#01252:0023000000000000
#01256:53
#0225b:0043000000430000
#02252:0000003300000033
#00758:0046
#00752:00000036
#00952:53
#0095b:53
#00958:0053000000000000
#00955:0053000000000000
#0175b:0043
#01756:0000000000230000
#01752:00006333
#01757:00000043
#01857:63
#0185b:0023000000000000
#02652:0033000000360000
#02659:0000004500000000
#02657:0000000000000047
#02752:003800001c000000
#02755:0000004900000000
#03457:0063000000000000
#0345b:0000001300000000
#03452:0000000000530000
#03456:0000000000000013
#0355b:0063000000000000
#03557:0000001300000000
#04056:0000006300330053
#04057:63430000
#04052:00330000
#0405b:0000000000430053
#04958:0000006300000000
#04952:0022000000001300
#0495c:00000000000000000022000000000000
#04856:0023000023000064
#0485b:0023000023000000
#04852:6300336300330000
#04857:6300336300330000
#02452:00000000000000000000005300000000
#0245b:0000000053000013
#02457:00000000000000000000006300000000
#05152:0000336300000000
#05159:0053000063000000
#05158:000023000000000000000000002300000000000000000000
#0515b:5300000000430000
#0515a:000000002300000000000023000000000000000000000000
#05154:0053000063000000
#05153:000023000000000000000000002300000000000000000000
#05156:53
#05155:000000002300000000000023000000000000000000000000
#05157:0000006300000000
#0045b:0000000000000043
#00552:0000000000000033
#00856:00180000
#01457:63
#0145b:0023000000000000
#01656:53
#01652:0023000000000000
#01653:0000000000000000000000000000000000000000000000000023000000000000
#01655:00000000000000000000006300000000
#0165a:0000000000000000000000000000000000000000000000000023000000000000
#01658:00000000000000000000005300000000
#01952:0035
#01959:0045
#04157:23
#04152:2300003300330000
#04158:00003333
#01152:00000013
#01157:00000013
#003360:0000000000001333
#003320:00000000000000000000000000330033
#004360:23
#009320:1300002300000000
#009350:0033000000000000
#0093b1:1300002300000000
#009381:0033000000000000
#0113b1:00001300005323000000000000000000
#011371:00000053330000000000000000000000
#011360:00001300005323000000000000000000
#011320:00000053330000000000000000000000
#011360:000000000000000000000000000000000000000000000000000000000000000000000000000000000000000000000000130000533300530000000000000000000000000000000000000000000000000000000000000000000000000000000000
#011350:000000000000000000000000000000000000000000000000000000000000000000000000000000000000000000000000000000000000000000000000000000000000000000000000000000000000000000000000000000000000000000000000000000530000000000530000000000003300530000000000330000000000000000000000000000000000000000000000000000000000000000000000000000000000000000000000000000000000000000000000000000000000000000000000
#011340:00000000000000000000000000000000000000000000000000000000000000000000000000530053000053005300000000000000000000000000000000000000
#011330:000000000000000000000000000000000000000000000000000000000000000000000000000000000000000000000000000000000000000000000000000000000000000000000000000000000000000000000000000000000000000000000000000000000000000000000000000000000000000000000000000000000000000000000000000000000000000000000000000000000000000000000000000000000000000000000000000000000000000000000000000000000000000000000000000000000000000000000000000000000000000000000000000000000000000000000000000000000000000000000000000000000000000000000000000000000000000000000000000000000000000000000000000000000000000000000000000000000000000000000000000000000000000000000000000000000000000000000000000000000000000000000000000000000000000000000000000000000000000000000000000000000000000000000000000000000000000000000000000000000000000000000000000000000000000000000000000000000000000000000000000000000000000000000000000000000000000000000000000000000000000000000000000000000000000000000000000000000000000000000000000000000000000000000000000000000000000000000000000000000000000000000000000000000000000000000000000000000000000000000000000000000000000000000000000000000000000000000000000000000000000000000000000000000000000000000000000000000000000000000000000000000000000000000000000000000000000000000000000000000000000000000000000000000000000000000000000000000000000000000000000000000000000000000000000000000000000000000000000000000000000000000000000000000000000000000000000000000000000000000000000000000000000000000000000000000000000000000000000000000000000000000000000000000000000000000000000000000000000000000000000000000000000000000000000000000000000000000000000000000000000000000000000000000000000000000000000000000000000000000000000000000000000000000000000000000000000000000000000000000000000000000000000000000000000000000000000000000000000000000000000000000000000000000000000000000000000000000000000000000000000000000000000000000000000000000000000000000000000000000000000000000000000000000000000000000000000000000000000000000000000000000000000000000000000000000000000000000000000000000000000000000000000000000000000000000000000000000000000000000000000000000000000000000000000000000000000000000000000000000000000000000000000000000000000000000000000000000000000000000000000000000000000000000000000000000000000000000000000000000000000000000000000000000000000000000000000000000000000000000000000000000000000000000000000000000000000000000000000000000000000000000000000000000000000000000000000000000000000000000000530000000000000000000000000000000000000000000000000000000000000000000000000000000000000000000000000033000000000000000000530000000000000000000000000000000000000000000000000000000000000000000000000000000000000000000000000000000000000000000000000000000000000000000000000000000000000000000000000000000000530000000000000000000000000000000000000000000000000000000000000000000000000000000000000000000000000000000000000000000053000000000000000000000000000000000000000000000000000000000000000000000000000000000000000000000000000000000000000000000000000000000000000000000000000000000000000000000000000000000000000000000000000000000000000000000000000000000000000000000000000000000000000000000000000000000000000000000000000000000000000000000000000000000000000000000000000000000000000000000000000000000000000000000000000000000000000000000000000000000000000000000000000000000000000000000000000000000000000000000000000000000000000000000000000000000000000000000000000000000000000000000000000000000000000000000000000000000000000000000000000000000000000000000000000000000000000000000000000000000000000000000000000000000000000000000000000000000000000000000000000000000000000000000000000000000000000000000000000000000000000000000000000000000000000000000000000000000000000000000000000000000000000000000000000000000000000000000000000000000000000000000000000000000000000000000000000000000000000000000000
#011320:000000000000000000000000000000000000000000000000000000000000000000000000000000000000000000000000000000000000000000000000000000000000000000000000000000000000000000000000000000000000000000000000000000000000000000000000000000000000000000000000000000000000000000000000000000533300000000530000230000000000000000000000000000000000000000000000000000000000000000000000000000000000000000000000
#0113b1:000000000000000000000000000000000000000000000000000000000000000000000000000000000000000000000000130000533300530000000000000000000000000000000000000000000000000000000000000000000000000000000000
#0113a1:000000000000000000000000000000000000000000000000000000000000000000000000000000000000000000000000000000000000000000000000000000000000000000000000000000000000000000000000000000000000000000000000000000530000000000530000000000003300530000000000330000000000000000000000000000000000000000000000000000000000000000000000000000000000000000000000000000000000000000000000000000000000000000000000
#011391:00000000000000000000000000000000000000000000000000000000000000000000000000530053000053005300000000000000000000000000000000000000
#011381:000000000000000000000000000000000000000000000000000000000000000000000000000000000000000000000000000000000000000000000000000000000000000000000000000000000000000000000000000000000000000000000000000000000000000000000000000000000000000000000000000000000000000000000000000000000000000000000000000000000000000000000000000000000000000000000000000000000000000000000000000000000000000000000000000000000000000000000000000000000000000000000000000000000000000000000000000000000000000000000000000000000000000000000000000000000000000000000000000000000000000000000000000000000000000000000000000000000000000000000000000000000000000000000000000000000000000000000000000000000000000000000000000000000000000000000000000000000000000000000000000000000000000000000000000000000000000000000000000000000000000000000000000000000000000000000000000000000000000000000000000000000000000000000000000000000000000000000000000000000000000000000000000000000000000000000000000000000000000000000000000000000000000000000000000000000000000000000000000000000000000000000000000000000000000000000000000000000000000000000000000000000000000000000000000000000000000000000000000000000000000000000000000000000000000000000000000000000000000000000000000000000000000000000000000000000000000000000000000000000000000000000000000000000000000000000000000000000000000000000000000000000000000000000000000000000000000000000000000000000000000000000000000000000000000000000000000000000000000000000000000000000000000000000000000000000000000000000000000000000000000000000000000000000000000000000000000000000000000000000000000000000000000000000000000000000000000000000000000000000000000000000000000000000000000000000000000000000000000000000000000000000000000000000000000000000000000000000000000000000000000000000000000000000000000000000000000000000000000000000000000000000000000000000000000000000000000000000000000000000000000000000000000000000000000000000000000000000000000000000000000000000000000000000000000000000000000000000000000000000000000000000000000000000000000000000000000000000000000000000000000000000000000000000000000000000000000000000000000000000000000000000000000000000000000000000000000000000000000000000000000000000000000000000000000000000000000000000000000000000000000000000000000000000000000000000000000000000000000000000000000000000000000000000000000000000000000000000000000000000000000000000000000000000000000000000000000000000000000000000000000000000000000000000000000000000000000000000000000000000000530000000000000000000000000000000000000000000000000000000000000000000000000000000000000000000000000033000000000000000000530000000000000000000000000000000000000000000000000000000000000000000000000000000000000000000000000000000000000000000000000000000000000000000000000000000000000000000000000000000000530000000000000000000000000000000000000000000000000000000000000000000000000000000000000000000000000000000000000000000053000000000000000000000000000000000000000000000000000000000000000000000000000000000000000000000000000000000000000000000000000000000000000000000000000000000000000000000000000000000000000000000000000000000000000000000000000000000000000000000000000000000000000000000000000000000000000000000000000000000000000000000000000000000000000000000000000000000000000000000000000000000000000000000000000000000000000000000000000000000000000000000000000000000000000000000000000000000000000000000000000000000000000000000000000000000000000000000000000000000000000000000000000000000000000000000000000000000000000000000000000000000000000000000000000000000000000000000000000000000000000000000000000000000000000000000000000000000000000000000000000000000000000000000000000000000000000000000000000000000000000000000000000000000000000000000000000000000000000000000000000000000000000000000000000000000000000000000000000000000000000000000000000000000000000000000000000000000000000000000000
#011371:000000000000000000000000000000000000000000000000000000000000000000000000000000000000000000000000000000000000000000000000000000000000000000000000000000000000000000000000000000000000000000000000000000000000000000000000000000000000000000000000000000000000000000000000000000533300000000530000230000000000000000000000000000000000000000000000000000000000000000000000000000000000000000000000
#012361:13230000
#012321:0053000000000000
#012381:00000000000000000000001300000000
#0123b1:0000000000000023
#012350:00000000000000000000001300000000
#012320:0000000000000023
#0133b0:00001323
#013370:0000000000530000
#014370:13230000
#0143b0:0053000000000000
#014320:00000000000000000000001300000000
#014350:0000000000000023
#0143b1:00000000000000000000001300000000
#014381:0000000000000023
#015361:13
#015321:0023000000000000
#015370:0013000000000000
#0153b0:00230000
#015361:00130000
#015321:0000002300000000
#015370:0000001300000000
#0153b0:0023
#015371:0013
#015321:0000000000230000
#015360:0000000000130000
#0153b0:00000023
#015371:00000013
#015321:0000000000000023
#016361:13230000
#016321:0053000000000000
#016351:00000000000000000000001300002300
#016331:0000000000000000000000000000000000000000000000000053000000000000
#016380:00000000000000000000001300002300
#0163a0:0000000000000000000000000000000000000000000000000053000000000000
#017320:00001323
#017360:0000000000530000
#018370:13230000
#0183b0:0053000000000000
#020320:0000000013000023
#020360:00000000000000000000005300000000
#0203b1:00000000000000000000001300000000
#020371:0000000000000023
#021371:00000000000000000000132300000000
#0243b1:0000000013000023
#024371:00000000000000000000005300000000
#024320:00000000000000000000001300000000
#024360:0000000000000023
#025360:00000000000000000000132300000000
#026380:00130000000000000000000000000000
#0263b0:0023000000000000
#026350:00000000001300000000000000000000
#026320:0000002300000000
#026380:00000000000000000013000000000000
#0263b0:0000000000230000
#026350:00000000000000000000000000130000
#026320:0000000000000023
#027380:00130000000000000000000000000000
#0273b0:0023000000000000
#027350:00000000001300000000000000000000
#027320:0000002300000000
#028340:1353
#028360:00530000
#028320:00000053
#029340:5300002300000000
#029360:00000053000000000000000000000000
#029390:0000000000000013
#030370:0053000000000000
#030390:0000005300000053
#0303b0:0000000000530000
#031370:0053000000000000
#031390:0000002300000000
#031340:0000000000000013
#032360:0053000000000000
#032340:0000005300000053
#032320:0000000000530000
#033360:0053000000000000
#033330:0000002300000000
#0333b1:13230000
#033360:0000000000130000
#033320:0000000000005323
#034370:0013000000000000
#0343b0:0000532300000000
#034320:0000000000130000
#034360:0000000000005323
#0353b0:0013000000000000
#035370:0000532300000000
#035350:0000000000130023
#035320:00000033
#035381:0000000000130023
#0353b1:00000033
#038361:13
#0383b1:00000053230000000000000000000000
#038371:0000001300000000
#038321:00000000000000000053230000000000
#038371:0000000000000013
#0393b1:53
#039371:0023000000000000
#038320:0000000000000013
#039360:53
#039320:0023000000000000
#039320:0000001300000000
#039350:0023
#039381:0013
#0393b1:0000000000230000
#039320:0000000000130000
#039350:00000023
#040370:13
#040320:00000053230000000000000000000000
#040360:0000001300000000
#0403b0:00000000000000000053230000000000
#040360:0000000000000013
#041320:53
#041360:0023000000000000
#0403b1:0000000000000013
#041371:53
#0413b1:0023000000000000
#0413b1:0000001300000000
#041381:0023
#041350:0013
#041320:0000000000230000
#0413b1:0000000000130000
#041381:00000023
#042321:14
#042361:00240000
#042370:13
#0423b0:00230000
#0423a0:0000001400000000
#042360:0000000000240000
#042361:0000001300000000
#042321:0000000000230000
#043351:0000001300002300
#043321:00000000000000000053000000000000
#043380:0000001300002300
#0433b0:00000000000000000053000000000000
#044320:13230000
#044350:0053000000000000
#0443b1:13230000
#044381:0053000000000000
#044391:0013
#044361:0000000000230000
#044341:00000013
#044371:0000000000000023
#0463b1:13230000
#046371:0053000000000000
#046360:13230000
#046320:0053000000000000
#0463b0:0000001300230000
#046370:0053
#046361:0000001300230000
#046321:0053
#046361:0000000000000014
#0473c1:0052000000000000
#047381:0000002300000000
#047350:0000001300000000
#047320:00000000000000000052000000000000
#047360:00000024
#048320:13230000
#048360:0053000000000000
#048371:13230000
#0483b1:0053000000000000
#048321:0000001300230000
#048361:0053
#048370:0000001300230000
#0483b0:0053
#048360:0000000000000014
#049320:0052000000000000
#049350:0000002300000000
#049381:0000001300000000
#0493c1:00000000000000000052000000000000
#049361:00000024
#050391:13530000000000000000000000000000
#050381:0055000000000000000000000000000000000000000000000000000000000000
#0503a1:0021000000000000
#050341:00000000135300000000000000000000
#050331:0000000000000000005500000000000000000000000000000000000000000000
#050351:0000002100000000
#0503a1:00000000000000001353000000000000
#050391:0000000000000000000000000000000000550000000000000000000000000000
#0503b1:0000000000210000
#050331:00000000000000000000000013530000
#050321:0000000000000000000000000000000000000000000000000055000000000000
#050341:0000000000000021
#051361:13
#051331:005300000000000000000000
#051341:0053000000000000
#051351:005300000000
#051321:00230000
#0513b0:13
#051380:005300000000000000000000
#051390:0053000000000000
#0513a0:005300000000
#051370:00230000
#051370:0000001300000000
#0513a0:000000000000000000000053000000000000000000000000
#051390:0053
#051380:000000000000000000000000005300000000000000000000
#0513b0:0000000000230000
#051321:0000001300000000
#051351:000000000000000000000053000000000000000000000000
#051341:0053
#051331:000000000000000000000000005300000000000000000000
#051361:0000000000230000
#053321:0013000000000000
#053361:00230000
#0533b0:00130000
#053370:0000002300000000
#053321:0000001300000000
#053361:0023
#0533b0:0013
#053370:0000000000230000
#053321:0000000000130000
#053361:00000023
#0533b0:00000013
#053390:0000000000000000000000000000000000000000000000000033000000000000
#053380:0000000000000000000000000000000000000000000000000000333333000000
#053370:0000000000000000000000000000000000000000000000000000000000330000
#053360:0000000000000000000000000000000000000000000000000000000000003333
#054320:23
