This file was generated by Ched 2.6.2.0.
#TITLE ""
#ARTIST ""
#DESIGNER ""
#DIFFICULTY 0
#PLAYLEVEL
#SONGID ""
#WAVE ""
#WAVEOFFSET 0
#JACKET ""
#REQUEST "ticks_per_beat 480"
#00002: 4
#BPM01: 148
#00008: 01
#TIL00: ""
#HISPEED 00
#MEASUREHS 00
#00414:00001414
#0041a:24140000
#00518:14140000
#00512:00001414
#01312:00001414
#01318:14
#01314:00140000
#0131a:00001414
#0061a:1414
#00614:00140014
#00718:14
#00712:00140000
#01012:1414
#01018:00140014
#01114:14
#0111a:00140000
#02219:15353535
#02216:0000000000150000
#0201a:14140000
#02014:00001414
#02012:14
#02010:41
#0211a:1414
#02114:00140014
#02412:14140000
#02418:00001414
#0241a:14
#02512:1414
#02518:00140014
#03318:0000000000140014
#03314:00000014
#0331a:14
#03312:00140000
#03413:0000000000150015
#03418:00000015
#03518:0000000000160016
#03512:00000016
#0321a:00000014
#03212:00000014
#0301a:00000014
#03018:14
#03713:00140014
#03719:0014
#0441a:0014
#04419:00000014
#04418:14
#04414:0014
#04413:00000014
#03818:2400001400000016
#03814:0000140000140000
#0381f:21
#04014:1400001400000000
#04012:0000000000000016
#04018:0000140000140000
#0421a:1400000000000014
#04214:00140000
#04218:0000001400000000
#04212:0000000000140000
#04314:0014000000000000
#04318:00140000
#04514:00140014
#04518:1414
#04512:14
#05014:00140000
#05018:1600001400000000
#05012:0000000000160000
#0501a:0000000000000014
#05114:14
#05118:0000140000160000
#05112:0000001400000000
#05314:0000383838381800
#05316:0014000000000000
#0281a:00000014
#0281f:11
#05219:14
#05213:14
#02912:00000014
#03112:00000014
#03114:14
#04612:0000000000160016
#04614:00140000
#04618:2600001400000000
#04812:16
#04818:0000140000160016
#04814:0000001400000000
#04810:41
#00818:00001414
#00812:14140000
#00810:41
#00914:14140000
#0091a:00001414
#01712:00001414
#01718:14
#01714:00140000
#0171a:00001414
#02612:15353535
#02615:0000000000150000
#02610:41
#01914:0028
#02319:3525
#02712:3525
#01410:41
#03910:41
#02259:65
#02256:0000000000250000
#01954:0018
#05456:0014000000000000
#03154:64
#03058:54
#05354:00000058
#05356:0024000000000000
#00758:00000014
#01154:00000014
#01559:00140000
#01553:00000014
#03958:00000016
#04152:00000016
#04758:00000016
#04952:00000016
#02652:55
#02655:0000000000250000
#007380:00001424
#011340:00001424
#012380:14240000
#012340:00001424
#014380:14240000
#014340:00001424
#015390:14240000
#015330:00001424
#0163a0:14240000
#016320:00001424
#0183a0:14240000
#018320:00001424
#019340:180000383838280000000000
#022390:15353535
#022360:0000000000550000
#023390:35250000
#026320:15353535
#026350:0000000000550000
#027320:35250000
#0283a0:1424
#029320:1424
#030380:14
#0303a0:0024
#031340:14
#031320:0024
#0323a0:1424
#032321:1424
#036351:000000160000360036003600
#037351:26
#039381:0016003636362600
#041321:0016003636362600
#043341:0000001400002400
#047381:0016003636362600
#049321:0016003636362600
#053361:0014000000000000
#053341:0000383838383800
#054361:3424000000000000
