This file was generated by Ched 2.6.2.0.
#TITLE ""
#ARTIST ""
#DESIGNER ""
#DIFFICULTY 0
#PLAYLEVEL
#SONGID ""
#WAVE ""
#WAVEOFFSET 0
#JACKET ""
#REQUEST "ticks_per_beat 480"
#00002: 4
#BPM01: 140
#00008: 01
#TIL00: ""
#HISPEED 00
#MEASUREHS 00
#00512:14
#0081a:14
#00912:14
#00618:14
#00714:14
#01018:14
#01114:14
#0121a:14
#01210:41
#01312:14
#01418:14
#01514:14
#01619:14
#01719:14
#01813:14
#01913:14
#01910:41
#0201a:14
#02114:14
#02218:14
#03618:2616
#0361f:21
#03712:1616
#03710:41
#03818:16
#03812:0016
#03918:16
#03912:0016
#04318:16
#0501a:14
#05014:14
#05112:14
#05118:14
#04219:1414
#05218:16
#05212:0016
#0561a:14
#05610:41
#05712:14
#05818:14
#05914:14
#06419:14
#06413:0014
#0281f:11
#02312:14
#0241a:14
#02514:14
#02618:14
#02712:14
#02710:41
#04018:2616
#04112:1616
#04512:16
#04413:1414
#05412:16
#05418:0016
#0601a:14
#06112:14
#06218:14
#06314:14
#06713:14
#0041a:24
#04610:41
#0283a0:14
#0293a0:24
#030340:14
#031340:24
#032380:14
#033380:24
#034320:14
#035320:24
#046380:16
#047380:26
#048320:16
#049320:26
#053380:1626
#055320:1626
#065390:14
#066390:24
