This file was generated by Ched 2.6.2.0.
#TITLE ""
#ARTIST ""
#DESIGNER ""
#DIFFICULTY 0
#PLAYLEVEL
#SONGID ""
#WAVE ""
#WAVEOFFSET 0
#JACKET ""
#REQUEST "ticks_per_beat 480"
#00002: 4
#BPM01: 140
#00008: 01
#TIL00: ""
#HISPEED 00
#MEASUREHS 00
#00812:0012000000000013
#00815:13000000001200000000120000000000
#0081b:13
#00818:0000000000000013
#0081c:0012
#00819:00000000120000000000001200000000
#01912:13131313
#01915:0013000000130000
#0191b:13131313
#01918:0000001300000013
#01910:41
#02314:0000001200000000
#02319:00000012000000001200000012000000
#02312:00001212
#0231c:0000000000120012
#02315:0012000000120012
#0231a:12
#02512:12001213
#02518:0000000000000013
#02515:00000000000000000000000000000013
#0251b:00000013
#0251c:1212
#0261b:0013000000001300
#02612:0000130000130000
#02615:0000001300000000
#02618:00000000000000130000000000001300
#02715:1300000000000000000000000000001300000000000000000000000000000000
#02712:0013000000000000
#0271b:0000000000000000000000000000001300000000000000000000000000000000
#02718:00000013000000000000000000000000
#02710:41
#02819:0000001200000000
#02813:0012
#0281c:22000012
#02814:0000000000000012
#0281b:0012
#02816:00000012
#0281f:11
#0291b:00000012000000001200000000000000
#02913:0000001200000000
#02915:0000000000120000
#02919:00000000000000000000001200000012
#02914:0000000000000012
#02918:12
#03016:12
#0301b:0012001200000000
#0301c:00120000
#03012:0000000012000013
#03015:0000000000120000
#0301a:00000000000000000000001200000000
#03019:0012
#03013:0012000000000000
#03118:1300001300130000
#0311b:00000013000000001300000000000000
#03115:00000013000000001300000000000000
#03112:0000000000130000
#03619:00120000
#0361a:0012
#0361c:00000012
#03615:00130013
#03612:2313
#0361b:23
#0361f:21
#0371b:12
#03712:1313
#03715:00130013
#0371a:0000121200120000
#03718:0000000000000012
#03710:41
#03815:00120000
#03812:0000001200000012
#03816:0000000000120000
#03814:12000012
#03818:00130013
#0381b:1313
#03915:12000000000012000000001300000013
#03912:00000000120000000013000000130000
#0391b:1300000000130013
#03918:00131313
#04215:1300001300130000
#04218:0013000013000000
#0421b:0000230000130013
#04212:0013000000002300
#04319:13
#04314:00130000
#04316:0014000000000000
#04312:0000001300000000
#04315:00000000000000000013000000000000
#0431b:0000000000000013
#04318:0000001300001300
#04517:0000000000000013
#04519:13000013
#04514:00130000
#04516:0014000000000000
#04512:0000001300000000
#04515:00000000000000000013000000000000
#0451b:0000000000130000
#04518:0000001300000000
#04617:13
#04614:00130000
#04616:0013
#04612:13000013
#04610:41
#04716:13
#04718:0000131300000000
#0471b:1300000000130000
#04712:0000000000000013
#04818:13
#0481b:00130013
#04815:0000001300000013
#04812:0000000000130000
#0491b:13000000000000000000001200000000
#04919:00000000130013000000000000120000
#04912:1312
#04918:00000000000000000012000000000000
#04915:0000000000120000
#04913:00000012
#04916:0000000000000012
#0491c:00000000000000000000000000000012
#04914:0000131300000000
#05615:00001200000000000000130000000013
#05619:00120000
#0561a:00000012
#0561c:0000001200000000
#05612:2213
#05618:00000000000000000013000000000000
#0561b:0000000000000013
#05614:00000012
#05610:41
#0621b:00130000
#06218:0000001300000000
#06215:13
#06212:0000000000130000
#06216:00000013
#0641b:1300230000130000
#06412:00130000230000001300000013000000
#06418:0013000000000000
#06415:00000013000000000000000000000000
#06416:0000000000130000
#06417:00001313
#06519:00000013000000000000002300000000
#06516:1323
#06512:0000001300000023
#06514:00000023000000000000001300000000
#0651b:2313
#06517:0000002300000013
#00419:00120000
#00412:0012
#00414:2200000000120000
#00416:00000012
#0041c:22
#0051a:1200000000120000
#00515:00120000
#0051c:0012
#00518:00000012
#00512:12
#00614:12
#00619:00120000
#00612:0012
#00615:0000000000120000
#00618:00000012
#0061c:12
#0071a:12
#00715:00120000
#0071c:0012
#00719:0000000000120000
#00716:00000012
#00712:12
#0091c:0012000000000000
#00919:00000000001200000000120000000000
#00915:00000000120000000000001200001300
#00912:0012
#0091b:0000000000000013
#01015:0012000000000000
#01012:00000000001200000000000000001300
#01018:0000000000000013
#01019:0012
#0101c:00000000000000000000001200000000
#01014:0000000000120000
#0101a:00120000
#01115:0000000012000013
#0111b:0000000000000013
#01119:0012000000000000
#0111c:00000000001200000000000000000000
#01112:00000000000000000000001200000000
#0111a:0000000000120000
#01114:00120000
#04112:1300000000001313
#04115:0000130013130000
#0411c:12
#0411a:00120000
#04118:00000000000012000013001300000000
#0411b:00000000000000000000000000130000
#0441b:0000230013000013
#04412:0000001300002300
#04414:0000000000130000
#04413:00130000000000000000000000000000
#04419:0013000000130000
#04415:00000013000000000000000000000000
#04417:13000013
#04416:0013
#05115:0000001200130013
#05116:12
#05119:0012000000000000
#0511c:12
#05112:00001313
#05118:00000000000000000013000000130000
#0511b:00000000120000000000001300000000
#05113:00120000
#05212:13130023
#05215:0013000000000000
#05218:0000001300130000
#0521b:00231313
#0521c:0000000000000012
#05216:0000000000000012
#0631b:13000013
#06317:0013000000000000
#06312:0000001300000000
#06316:0013
#06318:0000000000000013
#06118:00000000000000000000001300000013
#06112:1200000000130013
#0611b:00000000000000000013000000130000
#06115:00001313
#06119:14
#0611a:0014000000000000
#06114:0012000000000000
#06116:00120000
#04019:00120000
#0401a:0012
#0401b:23000012
#04015:00130013
#04012:2313
#05013:00120000
#05019:0012000000000000
#05015:0000001200000000
#05012:23001212
#05018:0012
#05014:0000000000000012
#0501c:00000012
#0501b:00120000
#0501a:0000000000120000
#05312:0000001200130013
#05318:1300001200130000
#05315:00131313
#05314:0012000000000000
#0531a:0012000000000000
#0531b:00001313
#05812:00131313
#05815:0000001300130000
#05819:14141414
#0581a:0014000000140000
#05818:0000001400000014
#06012:12000012
#06016:00121200
#06014:0012000000120000
#06019:14141414
#0601a:0014000000140000
#06018:0000001400000014
#0541c:0000000000000012
#05416:1300000000001312
#0541b:0000001300002300
#05412:00231300
#05419:0000000000130000
#0541a:00130000000000000000000000000000
#05414:0013000000130000
#05418:00000013000000000000000000000000
#05417:0013
#05518:1300001213001300
#05515:0000130000130000
#05514:0012000000000000
#05512:0000001213001300
#0551a:0012000000000000
#0551b:0000000000130013
#05915:13131313
#05912:0013001300130000
#05919:14141414
#0591a:0014000000140000
#05918:0000001400000014
#05718:13
#0571b:00130013
#05712:00130013
#05715:0013
#0201b:0012001200000000
#02015:00120000
#02013:00001212
#02019:0000000000120000
#0201c:0000000000000012
#02118:12000012000000000000000000000000
#02112:12000012000000000000000000000000
#02114:0000001200000000
#0211b:0000000013000013
#02115:0013
#0211a:0000001200000000
#02214:0012
#02219:0012000000000000
#0221a:0000001200000012
#0221b:0000000000120000
#02213:00120000
#02215:00000012
#02412:0012120000000000
#02419:0000121212000000
#02415:0000000012121200
#0241c:0000000000001212
#0341b:0000000000000013
#03416:12
#0341a:12000000000000000000001200000000
#03414:00000012000000001200000000000000
#03412:0000001200000000
#03418:0012
#03515:1300001300130000
#03512:00131300
#03518:00131300
#0351b:0000000000130000
#01812:0013000000000000
#01815:00000000000000130000000000000000
#01818:00000013
#0121b:0013000013000013
#01212:13000000130000000000001300000000
#01218:23000000001300000000130000000000
#01215:0013
#01210:41
#01318:0013000000000000
#0131b:00000000001300000000000000001300
#01315:00130000
#01312:0013000000000000
#01412:0000000013000013
#01415:00130000
#01418:0000000000000013
#0141b:00000013
#0151b:00130000
#01515:00000013
#01612:0013000013000013
#0161b:13000000130000000000001300000000
#01615:23000000001300000000130000000000
#01618:0013
#01715:0013000000000000
#01712:00000000001300000000000000000000
#01718:00131300
#0171b:0013000000000013
#06612:16
#06618:160000000000000000120000323232323232000000000000
#06616:000000000000000000120000323232323232000000000000
#03215:0000001200000000
#0321b:0012
#03212:22000000000000000000001200000000
#0321a:0000000000000012
#03213:0012
#03218:00000000000000000000001200000000
#03312:00120000
#0331b:0000001200000000
#03313:0012
#03319:0000000000120000
#03315:00000000000000000000001200000000
#03316:12
#03314:0012000000000000
#06712:24
#0671a:24
#0195b:1313
#01952:00130013
#04355:00000000000000000023000000000000
#04352:0000006300000000
#04552:0000006300000000
#04555:00000000000000000023000000000000
#06258:0000006300000000
#06255:53
#06256:00000053
#06357:0063000000000000
#06356:0053
#06457:00000013
#06452:00000013
#05052:13
#02658:00000000000000630000000000000000
#02555:00000000000000000000000000000063
#03158:0000000000230000
#0315b:00005343
#03155:00005343
#03152:0000000000230000
#0575b:00230000
#05758:63
#05755:0053
#05752:00000023
#05859:64646464
#0585a:0024000000240000
#05858:0000002400000024
#05959:64646464
#0595a:0024000000240000
#05958:0000002400000024
#06059:64646464
#0605a:0024000000240000
#06058:0000002400000024
#06159:64
#0615a:0024000000000000
#02755:0000000000000000000000000000002300000000000000000000000000000000
#0275b:0000000000000000000000000000002300000000000000000000000000000000
#02752:0063000000000000
#02758:00000063000000000000000000000000
#06752:34
#0675a:44
#0135b:0000000000000053
#01455:00530000
#01452:0023
#01458:0000000000000053
#0155b:00230000
#01852:0053000000000000
#01855:00000000000000230000000000000000
#0175b:0000000000000053
#01758:0053
#02155:0063
#0215b:0063
#04657:63
#04756:63
#03552:00006333
#03555:0000000000230000
#03558:00006333
#0355b:0000000000230000
#06658:5600002200000000
#06652:56
#06656:0000002200000000
#01252:13
#0165b:13
#0425b:00130000
#04252:00000013
#0445b:00130000
#04452:00000013
#0525b:00130000
#05252:00000013
#05452:00130000
#0545b:00000013
#013320:0000000013230000
#013381:0000000000132300
#013350:0000000000001323
#0133b1:0000000000000013
#014381:00230000
#014350:00130023
#014320:0053
#014380:0000000000000013
#0153b0:00530000
#015380:00000023
#017380:0013
#0173b0:00000023
#017351:0000000000001323
#0173b0:0000000000000013
#018380:0023000000000000
#018321:0013000000002300
#018351:00000000000000530000000000000000
#021351:0013
#021321:0000000000003323
#0213b0:0013
#021380:00000023
#022321:0000000000000012
#023321:22
#025351:0012002200000000
#025390:00000012000022000000000000000000
#025350:00000000000000000000000000000013
#026320:0023000000000000
#026380:00000000000000130000000000000000
#0263b0:0000000000230000
#027320:0013000000003323
#027350:0000000000000000000000000000005300000000000000000000000000000000
#027381:00000013000000000000000033002300
#0273b1:0000000000000000000000000000005300000000000000000000000000000000
#028361:00000012000022000000000000000000
#029321:12000022000000000000000000000000
#030321:0000122200000000
#0313b1:00001323
#031381:0000000000330000
#031350:00001323
#031320:0000000000330000
#032380:00000012000022000000000000000000
#0333c0:12220000
#0343c0:00000012000022000000000000000000
#034320:00000000000000000000001200002200
#035320:00001323
#035350:0000000000330000
#035381:00001323
#0353b1:0000000000330000
#043321:0000001300002300
#043351:00000000000000000053000000000000
#045321:0000001300002300
#045351:00000000000000000053000000000000
#046371:13
#0463b1:00000023
#047361:13
#047321:0000000000230000
#048351:13230000
#048381:0000001300230000
#0513b1:0000000000000013
#052381:33
#0523b1:0033230000000000
#052321:0000001300332300
#052351:0033
#057381:1323
#0573b1:00530000
#057350:0013
#057320:00000053
#058350:23
#058391:14545454
#0583a1:0054000000540000
#058381:0000005400000054
#059391:54545454
#0593a1:0054000000540000
#059381:0000005400000054
#060391:54545454
#0603a1:0054000000540000
#060381:0000005400000054
#061391:54240000
#0613a1:0054000000000000
#062351:13
#062321:0000002300000000
#062380:0000001300000000
#0623b0:00000023
#062361:00000013
#063321:0023000000000000
#063370:0013000000000000
#0633b0:0023
#063361:0013
#063321:0000000000000023
#066381:160000000000000000520000323232323232260000000000
#066320:16000026
#066360:000000000000000000520000323232323232000000000000
