This file was generated by Ched 2.6.2.0.
#TITLE ""
#ARTIST ""
#DESIGNER ""
#DIFFICULTY 0
#PLAYLEVEL
#SONGID ""
#WAVE ""
#WAVEOFFSET 0
#JACKET ""
#REQUEST "ticks_per_beat 480"
#00002: 4
#BPM01: 140
#00008: 01
#TIL00: ""
#HISPEED 00
#MEASUREHS 00
#01215:0000130000130000
#01218:00001313
#01212:13
#0121b:13
#01210:41
#02312:0000001300130013
#0231b:13001313
#02318:00000013000000000000130000001300
#02315:0013000013001300
#0251b:0000001313001300
#02515:0013000000000013
#02518:13000013000000000000000000000000
#02512:0000001313000000
#0261b:00000013
#02615:0000000000000013
#02612:00130000
#02618:0000001300000000
#02718:13000013000000000000000000000000
#02712:0013000000000000
#02710:41
#02915:00000013000000000000001300000013
#0291b:1300001300000000
#02912:0013
#02918:0000000000130013
#0301b:1313
#03015:0013000000130000
#03018:00000000130000000000001300000000
#03012:0000001300000013
#0311b:13
#03118:0000001300000000
#03115:00000013000000000000000000000000
#03112:0013
#03812:1300000000130000
#03818:13130013
#03815:0000001300000013
#0381b:0000001300000000
#0421b:0000230000000013
#04215:1300001300000000
#04218:0013
#04212:00000023
#04315:1300000000000013
#04312:00130000
#04318:0013000000000000
#0431b:0000001300000000
#04612:13000013
#0461b:13
#04618:00130000
#04615:0013
#04610:41
#06413:0013
#06416:0000000000140000
#06412:00000013
#0641b:00000013
#0641a:0013
#06418:00230000
#00815:0013
#00812:13000013
#00818:0000130000130000
#0081b:13
#0041b:00130000
#00415:00001313
#00418:2300000000130000
#00412:23
#0191b:13
#01918:00130000
#01915:0013
#01912:00000013
#01910:41
#04118:0000000000000013
#04115:00130000
#0411b:0000001300000000
#04112:0000000000130000
#06218:00000013
#06315:0013000000000000
#0631b:0013
#06312:0000000000000013
#03615:00000013
#0361b:23130000
#03612:23
#0361f:21
#0201b:0013000000000000
#02015:00131300
#02018:0000001300130013
#02012:00000013
#0211b:13000013000013000000000000000000
#02212:0013000000000013
#02218:00131300
#02215:0000001300130000
#0221b:00000013
#0241b:0013000000130000
#02412:0000001300000000
#02418:00130013
#02415:0000000013000013
#0051b:13
#00512:00130000
#00518:00001313
#00515:1300000000130000
#00612:13
#00615:0000130000130000
#0061b:00001313
#00618:13
#0071b:13
#00718:0000130000130000
#00712:00001313
#00715:13
#0101b:13
#01015:00130000
#01018:00001313
#01012:1300000000130000
#02812:2300001300000000
#02818:00000013000000000000000013000000
#0281b:0013
#02815:0000000000000013
#0281f:11
#03315:0013000000130000
#03312:0000001300000000
#0331b:1313
#03318:00000000130000000000001300000000
#03412:13000000000000000000001300000000
#03418:00000013000000000000000000001300
#03415:0000001300000000
#0341b:0013
#03515:1300001300000000
#03518:00130014
#0351a:0014
#03512:0000000000140000
#0321b:0000001300000000
#03215:00000013000000000000000000001300
#03212:0013
#03218:23000000000000000000001300000000
#03715:0000001300000013
#03718:00130000
#0371b:0000000000130000
#03710:41
#01418:0000000000000013
#01415:00130013
#0391b:13
#03918:0000130000340034
#03915:0000001300000000
#03912:13
#03919:00000000000000000034000000000034
#03917:00000000000000000000003400340000
#04418:1300001300000000
#04412:0000230000000013
#04415:0013
#0441b:00000023
#04915:00000000130000000000003400340000
#04918:0000001300000000
#0491b:13
#04913:00000000000000000034000000000034
#04914:0000000000340034
#0521b:0000000000000013
#05215:13000023
#05212:0000001300000000
#05218:00231300
#05318:1300001300000000
#05312:0000130000000013
#05315:0013000000000000
#05118:00130000
#05115:0000001300000000
#0511b:0000000000000013
#05412:0000000000000013
#05418:13000023
#0541b:0000001300000000
#05415:00231300
#05515:1300001300000000
#0551b:00130000
#05518:0013000000000000
#05615:00001300000000000013000000000013
#05618:0000130000130013
#05612:0000001300001300
#0561b:2313
#05610:41
#05712:0013
#0571b:13
#06512:1323
#0651b:2313
#06518:00000023000000000000000000002300
#06515:00000000000023000000002300000000
#06612:13
#0661b:13
#06615:0000001300000000
#06618:0000001300000000
#05819:13
#05914:13
#0601b:13
#06112:13
#01312:1313
#01315:0000000000130000
#01318:00000013
#0131b:1300000000000013
#04518:13
#0451b:00130000
#04515:0013000000000000
#04512:0000001300000000
#04018:00000013
#04012:00130000
#0401a:24
#05012:24000013
#05018:00130000
#0471b:13
#04715:0000130000000013
#04718:0000001300000000
#04818:00000013
#04815:0000000000000013
#00918:0013
#0091b:13000013
#00915:0000130000130000
#00912:13
#01112:13
#01118:00130000
#01115:00001313
#0111b:1300000000130000
#01618:0000130000130000
#01615:00001313
#0161b:13
#01612:13
#0171b:13
#01712:13
#01715:0000000000000013
#01718:0013
#01815:0013000000000000
#06712:24
#0671a:24
#0195b:13
#01958:00130000
#01955:0013
#01952:00000013
#0435b:0000006300000000
#06258:00000063
#06355:0053000000000000
#0635b:0063
#06352:0000000000000053
#0645b:00000013
#06452:00000013
#01252:13
#0125b:13
#02758:00000053000000000000000000000000
#03558:00000014
#0365b:00530000
#03655:00000053
#05358:0000005300000000
#05555:0000005300000000
#05752:0063
#0575b:63
#05859:23
#05954:23
#0605b:23
#06152:23
#01455:00630000
#01458:0000000000000053
#03152:0053
#03155:00000013
#04552:0000005300000000
#04058:00000063
#04052:00630000
#0405a:44
#05052:34000053
#05058:00530000
#0675a:14
#06752:14
#05155:0000005300000000
#04758:0000005300000000
#0665b:53
#06652:53
#06658:0000002300000000
#06655:0000002300000000
#0165b:13
#01652:13
#01855:0053000000000000
#01758:0053
#0425b:00130000
#04252:00000013
#04452:00130000
#0445b:00000013
#05258:00130000
#05255:00000013
#05455:00130000
#05458:00000013
#014350:00130000
#014320:0023
#014380:0000000000000013
#0153b0:00000023
#017380:0013
#0173b0:00000023
#018350:0013000000000000
#018320:00000023
#021380:00001323
#021321:00001323
#025381:00000000000000000000000000000013
#026381:0023000000000000
#026351:00000000000000130000230000000000
#027381:00000013000000000000000000000000
#0273b1:0000000000000023
#031321:0013
#031351:00000023
#0363b1:00130000
#036381:0023
#036351:00000013
#037321:23
#0393a1:0014
#039391:00000000000000000034000000000034
#039381:0000000000340034
#039371:00000000000000000000003400340000
#039361:00000034
#0403a1:24
#040321:00130000
#040351:0023
#040381:00000013
#0413b1:23
#0423b1:0013230000000000
#042321:0000000000132300
#0433b1:0000001300000000
#043381:00000023
#044321:0013230000000000
#0443b1:0000000000132300
#045321:0000001300000000
#045351:00000023
#047381:0000001300000000
#0473b1:0000000000230000
#048381:13230000
#048351:0000001300230000
#049321:0014
#049331:00000000000000000034000000000034
#049341:0000000000340034
#049351:00000000000000000000003400340000
#049361:00000034
#050321:24
#050381:00130000
#0503b1:0023
#050321:00000013
#051351:23
#051351:0000001300000000
#051321:0000000000230000
#052381:0013230000000000
#052351:0000000000132300
#053381:0000001300000000
#0533b1:00000023
#054351:0013230000000000
#054381:0000000000132300
#055351:0000001300000000
#055321:00000023
#0573b1:13
#057381:00230000
#057321:0013
#057351:00000023
#058391:13
#058371:00000027
#059341:13
#059321:00000027
#0603b1:13
#060371:00000027
#061321:13000027
#062381:13230000
#062351:0000001300230000
#062381:00000013
#0633b1:23
#063351:0013000000000000
#063321:0000002300000000
#0633b1:0013
#063381:00000023
#063321:0000000000000013
#064351:0023000000000000
#0663b1:13000023
#066381:0000005300000000
#066320:13000023
#066350:0000005300000000
