This file was generated by Ched 2.6.2.0.
#TITLE ""
#ARTIST ""
#DESIGNER ""
#DIFFICULTY 0
#PLAYLEVEL
#SONGID ""
#WAVE ""
#WAVEOFFSET 0
#JACKET ""
#REQUEST "ticks_per_beat 480"
#00002: 4
#BPM01: 140
#00008: 01
#TIL00: ""
#HISPEED 00
#MEASUREHS 00
#0041a:24140000
#00414:00001414
#00518:14140000
#00512:00001414
#00618:14140000
#00612:00001414
#0071a:14140000
#00714:00001414
#0081a:1414
#00814:00140014
#00918:1414
#00912:00140014
#0101a:14
#01014:00140000
#01018:0014
#01012:00000014
#0111a:14
#01114:00140000
#01118:0014
#01112:00000014
#0121a:14001414
#01214:0000140000140000
#01210:41
#01612:00001414
#01618:1400140000140000
#0201a:1414
#02014:00140014
#0241a:14
#02414:00140000
#02418:0014
#02412:00000014
#03012:00000016
#03118:00000016
#03418:00000016
#03415:00160000
#03412:16
#03512:00000016
#03515:00160000
#03518:16
#0281a:14
#02814:00140000
#02818:0014
#02812:00000014
#0281f:11
#0291a:14
#02914:00140000
#02912:00000014
#02918:0014
#03614:2414
#0361a:2414
#03612:00140014
#03618:00140014
#0361f:21
#03212:14
#03218:00140000
#03214:0014
#0321a:00000014
#03312:14
#03318:00140000
#0331a:00000014
#03314:0014
#0371a:0014
#03714:0000000000140000
#03719:00000014
#03713:0000000000000014
#03710:41
#03818:1414
#03814:00140014
#0381a:00140014
#03812:0014
#03912:0014
#03918:0000000000140000
#03913:00000014
#03919:0000000000000014
#04312:1600160000000016
#04318:0016000000000000
#04618:0000001400000000
#0461a:14
#04610:41
#04714:0000001400000000
#04712:14
#0481a:0000001400000000
#04818:14
#04912:0000001400000000
#04914:14
#05318:1600160000000016
#05312:0016000000000000
#0561a:14140000
#05614:0014001400000000
#05618:00001414
#05612:0000000000140014
#05610:41
#05812:14140000
#05818:0014001400000000
#05814:00001414
#0581a:0000000000140014
#0601a:14140000
#06014:0014000000000000
#06012:00001414
#06018:0000000000140000
#06118:14140000
#06112:0014000000000000
#06114:00001414
#0611a:0000000000140000
#0621a:14
#06312:00000014
#0631a:0000000000000014
#01312:14001414
#01318:0000140000140000
#0141a:14
#01418:00001414
#01412:0000140000140000
#01512:14
#01514:00001414
#0151a:0000140000140000
#0171a:00001414
#01714:1400140000140000
#0181a:0014
#01814:0000000000140000
#01818:14140014
#01812:0000000000000014
#01914:00140000
#01918:0014
#01912:00000014
#0191a:14
#01910:41
#02212:1414
#02218:00140014
#02612:14
#02618:00140000
#02614:0014
#0261a:00000014
#04018:0014
#0401a:00140014
#04012:00140014
#04014:24
#04114:14
#0411a:00140000
#04112:00140014
#04118:0000000014000016
#0501a:24140000
#05018:0014
#05014:24000014
#05112:1400140000000016
#05118:14000014
#05114:0014
#06616:14140000
#04212:1600001600160000
#04218:0016000016000016
#04518:16160000
#04512:0016000000000000
#04418:1600001600160000
#04412:0016000016000016
#05218:1600001600160000
#05212:0016000016000016
#05512:16160000
#05518:0016000000000000
#05412:1600001600160000
#05418:0016000016000016
#06712:24
#0671a:24
#02710:41
#03455:00260000
#03452:66
#03555:00260000
#03558:56
#0465a:54
#04658:0000002400000000
#04754:0000002400000000
#04752:64
#0485a:0000002400000000
#04858:64
#04952:0000002400000000
#04954:54
#0635a:0000000000000054
#0195a:14
#01954:00140000
#01958:0014
#01952:00000014
#06656:54240000
#06752:14
#0675a:14
#0213a0:14
#021380:0024
#023320:14
#023340:0024
#025380:14
#0253a0:0024
#027340:14
#027320:0024
#030380:1626
#030350:00360000
#031320:1626
#031350:00360000
#034320:1626
#034350:00360000
#035380:1626
#035350:00360000
#0373a0:14240000
#037341:14240000
#039321:14240000
#039380:14240000
#043380:0000001600002600
#045320:0000001600002600
#0463a0:14000024
#046380:0000005400000000
#047320:14000024
#047340:0000005400000000
#048380:14000024
#0483a0:0000005400000000
#049340:14000024
#049320:0000005400000000
#053320:0000001600002600
#055380:0000001600002600
#057380:1434
#0573a0:00340024
#059340:1434
#059320:00340024
#062340:0000143400342400
#063380:1434003424000000
#0633a0:0000000000000014
#064380:00000024
#065320:163626000000
#065380:000000163626
#066360:14540000
#066320:0000002c
