This file was generated by Ched 2.7.0.0.
#TITLE ""
#ARTIST ""
#DESIGNER ""
#DIFFICULTY 0
#PLAYLEVEL
#SONGID ""
#WAVE ""
#WAVEOFFSET 0
#JACKET ""
#REQUEST "ticks_per_beat 480"
#00002: 4
#BPM01: 130
#00008: 01
#TIL00: ""
#HISPEED 00
#MEASUREHS 00
#00019:14
#00119:14
#00213:14
#00313:14
#00818:14
#00918:14
#0121a:14
#01210:41
#0131a:14
#0241a:14
#02414:14
#02512:14
#02518:14
#0261a:14
#02614:14
#02718:14
#02712:14
#02818:2616
#0281f:21
#02912:1616
#02910:41
#03212:1616
#03318:1616
#03618:2616
#03712:1616
#03818:16
#03812:0016
#03810:41
#04012:1616
#04118:1616
#04212:16
#04218:0016
#01012:14
#01112:14
#01414:14
#01514:14
#0481a:1414
#0491a:14
#05014:1414
#05114:14
#05218:1414
#05318:14
#05412:1414
#04412:0016
#04418:16
#04612:16
#04618:0016
#04610:41
#0221f:11
#00410:41
#02010:41
#004390:14
#005390:24
#006330:14
#007330:24
#016380:14
#017380:24
#018320:14
#019320:24
#0203a0:14
#0213a0:24
#022340:14
#023340:24
#030380:16
#031380:26
#034320:16
#035320:26
#039380:1626
#043320:1626
#045380:1626
#047320:1626
#055320:1400000000003424
