This file was generated by Ched 2.7.0.0.
#TITLE ""
#ARTIST ""
#DESIGNER ""
#DIFFICULTY 0
#PLAYLEVEL
#SONGID ""
#WAVE ""
#WAVEOFFSET 0
#JACKET ""
#REQUEST "ticks_per_beat 480"
#00002: 4
#BPM01: 130
#00008: 01
#TIL00: ""
#HISPEED 00
#MEASUREHS 00
#0021b:13131300
#00215:00000000001300000000000000000000
#00218:0013001300130000
#00212:00000000000000130000130000000000
#00216:00000013
#00214:0000000000000013
#0021a:0000000000002424
#00117:00130000
#0011b:13
#00116:1300001300130000
#00114:0013000000001300
#00119:0013000000000000
#00112:0000130000000013
#0031b:1313000013001300
#00312:1300001300130013
#00316:0013000013001300
#00317:0000001300130013
#00412:0013000000130000
#00418:0013001300000000
#0041b:13130000
#00415:13000013
#00410:41
#0081b:1300001300000000
#00818:00131313
#00812:1313
#00815:0013000000000000
#01418:2300002313130000
#01415:00000000230000000013000013000000
#01412:1300001300000013
#0141b:0000130000000013
#0151b:0013001300001300
#01512:0013001313000000
#01518:13
#01515:00130000
#01517:0013
#01516:00000013
#01615:0013001300130013
#01618:00130013
#0161b:0013
#01612:00001313
#01719:00000013
#01716:0000000000000013
#01717:0000000000130000
#01714:00000013
#0171b:1300001300000013
#01712:1300000000130000
#01715:0013001300000000
#01718:00130000
#0191b:1300000000130000
#0191a:00000013
#01919:0000000000000013
#01913:00000013
#01912:1300001300130000
#01914:0000000000000013
#01918:0013001300000000
#01915:00130000
#02014:0000000000130000
#02016:0000001300001300
#02012:0013000013000013
#02017:0000000013000013
#02019:0000000000130000
#0201b:0013001300001300
#02015:23
#02018:23
#02010:41
#02112:0013001300130000
#0211b:1300130000000013
#02115:00130000
#02118:0000001300000000
#02117:0000000000130000
#02116:0000000000001413
#02212:13
#02218:0000000000130000
#0221b:0000130000000013
#02215:00000000000000000000001300000000
#02216:0000130000000013
#02217:13
#0221f:11
#02315:0013000000130016
#02318:00130013
#02312:1300001300001300
#0231b:1300001300130000
#02812:0000000000000013
#0281b:0013
#02815:00000000130000000013000000000000
#02818:0013001300130000
#0281f:21
#01112:1300001300000013
#01115:0013000000000000
#01118:1300000000000013
#0111b:0013000000131300
#01117:0000001300000000
#03012:1300001300130000
#0301b:1313
#03016:0013
#03017:0000000000130000
#03018:0000000000000013
#03015:00000000000000000000000000000013
#04012:0014001300000013
#0401b:00000000130000130000131300000000
#04016:00141300
#04017:0013000000000000
#04718:0013000023000013
#04715:00000000230000000000000000000013
#0471b:13130013
#04712:00001313
#00012:1300000000001313
#00015:0013000000000000
#0001b:0000001313000000
#00018:0000130000130000
#0361b:0013
#03619:0000000000130000
#03612:00001300000013000000001300000000
#03614:00000000000000000013000000000000
#03617:00000013
#03615:00130000
#03618:0013001300000000
#0391b:0013000000000013
#03919:00130013
#03917:0000001300130000
#03916:0013000000000013
#03914:00130013
#03912:0000001300130000
#03915:0026
#0431b:0013230023002300
#04315:0000000000000013
#02918:1300131313001313
#02915:1313130013131300
#0291b:0013000000130000
#02912:0000001300000013
#02910:41
#0311b:13001313
#03118:0000001300130000
#03112:0000130000130000
#03115:00000000000000130000000013000000
#03819:0013
#0381a:0000000000130000
#03815:00000000000000000000001300000000
#03814:00000000000000000013000000000000
#0381b:00130013
#03812:0013001300000000
#03817:0013001300000000
#03816:00130000
#03810:41
#04618:0013000000000013
#04615:00002300000000000000000000000013
#04612:00000000000000130000000000000000
#0461b:00000000000000130000000000000000
#04610:41
#00512:1300000000230023
#00517:13
#00516:0014132400000000
#0051b:00130023
#00518:0000000000130013
#00515:00000013
#0061b:0013000000130000
#00615:0013001300000000
#00612:13130000
#00618:13000013
#0071b:1300000000230023
#00716:1314002400000000
#00712:00130023
#00717:00130000
#00715:0000000000130013
#00718:00000013
#00912:0013000000130000
#0091b:0000130000130000
#00918:0000001300000000
#00915:0013
#01012:00001300000000000000001313000000
#01018:0013001300000000
#01015:00131300
#0101b:0000000013000013
#01016:0000000000000013
#01212:1300001300000000
#01215:00131313
#0121b:1313
#01218:0013000000000000
#01210:41
#0131b:0013000000130000
#01312:0000130000130000
#01315:0000001300000000
#01318:0013
#01818:0013001300130013
#01815:00130013
#01812:2313
#0181b:23001313
#02412:2313001300000000
#02415:00131300
#0241b:2300000000130013
#02418:00000013
#02518:1300000000130013
#02515:0013001300000000
#02512:23131300
#0251b:00000013
#0261b:1300000000130000
#02618:00000013
#02615:2300000000000013
#02715:00230013
#02718:23000013
#02712:2323
#0271b:00232300
#0321b:2300000000000013
#03212:2313
#03218:00000000130000000013000000000000
#03215:0013001300130000
#0341b:1300001300130000
#03412:1313
#03417:0013
#03416:0000000000130000
#03415:0000000000000013
#03418:00000000000000000000000000000013
#03315:1300131313001313
#03318:1313130013131300
#03312:0013000000130000
#0331b:0000001300000013
#03512:13001313
#03515:0000001300130013
#0351b:0000130000130013
#03518:00000000000000130000000013000000
#03712:0013
#03714:0000000000130000
#0371b:00001300000013000000001300000000
#03719:00000000000000000013000000000000
#03716:00000013
#03718:00130000
#03715:0013001300000000
#0411b:0000001300000013
#04112:00000000130000130000131300000000
#0411a:0014000000000000
#04116:0013140000000000
#04117:0013
#04212:0014001313000000
#04216:0000140000000013
#04218:00000000000000000000131300000000
#04217:0013000000000000
#0421b:00000000130000130000000000000000
#04412:0013000000000000
#04415:00000000000000000013000000000000
#04418:00000000000000000013000000000000
#0441b:0023000000000000
#04512:0013230023002300
#04518:0000000000000013
#04916:00130000
#04912:13
#04917:1300001300130000
#04919:0013000000001300
#04914:0013000000000000
#0491b:0000130000000013
#0481b:1300000000001313
#04818:0013000000000000
#04812:0000001313000000
#04815:0000130000130000
#05012:1300130013002424
#05018:00131300
#05015:0013001300130000
#0501b:0000001300130000
#05017:00000013
#05019:0000000000000013
#05112:1313000013001300
#0511b:1300001300130013
#05117:0013000013001300
#05116:0000001300130013
#0521b:0013000000130013
#05215:0013001300000013
#05212:13130000
#05218:13000013
#05312:13130000
#05315:0013000000003300
#0531b:0000131300130000
#05319:00000013
#05317:0000000000000013
#05412:0013000000130013
#05418:0013001300000013
#0541b:13130000
#05415:13000013
#0551b:13130000
#05518:0013000000003300
#05512:0000131300130000
#05514:00000013
#05516:0000000000000013
#01152:1300005300000000
#01155:0013000000000000
#0115b:0000000000131300
#01452:0000000000000013
#0155b:0013000000005300
#01552:0000001353000000
#01557:0053
#01556:00000053
#04052:0000000000000013
#04056:0053
#0405b:00000000000000000000005300000000
#04057:0000000000000013
#00052:0000000000001313
#0395b:0013000000000000
#03957:0000001300000000
#03959:00130000
#03952:0000000000130000
#03954:00000013
#03956:0000000000000013
#0045b:00000013
#02257:63
#02256:00630000
#0225b:00530000
#02858:0000000000530000
#02852:13
#0285b:13
#02958:1313
#02955:00130013
#0305b:13
#03052:53
#0315b:53000013
#03155:00000013
#00152:00130000
#00357:0000000000000013
#00356:00000013
#00556:0000001400000000
#00756:0000001400000000
#00652:00000013
#0095b:0000000000530000
#00952:0000000000530000
#00955:0000000000000013
#00958:0000000000000013
#0105b:0053
#0135b:0000000000630000
#01352:0000000000630000
#01355:0000000000000013
#01358:0000000000000013
#0205b:0023000000000000
#02052:0023000000000000
#02055:53
#02058:53
#02352:0000001300000000
#0235b:0000001300000000
#0245b:1313
#02452:13
#02558:0013
#02552:13
#02658:0013
#02652:0013
#02655:13
#0275b:0053
#02758:00000053
#02755:00000053
#02752:0053
#03255:0000000000630000
#03252:13
#0325b:13
#03355:1313
#03358:00130013
#03452:13
#0345b:63
#03552:63
#03658:0053000000000000
#03657:00000053
#0365b:0000000000000013
#03756:00000063
#03755:0063000000000000
#03752:0000000000000013
#0385b:00000053
#03857:0000000000000013
#0415b:0000000000000013
#04152:00000000000000000000006300000000
#04157:0063
#04156:0000000000000013
#04256:0000000000000013
#04258:00000000000000000000005300000000
#04252:0053
#0425b:0000000000000013
#0445b:0053000000000000
#04452:0053000000000000
#04458:00000000000000000023000000000000
#04455:00000000000000000023000000000000
#04652:00000000000000230000000000000000
#0465b:00000000000000230000000000000000
#04658:0063000000000000
#04655:0053000000000000
#04755:00130000
#04758:0013
#0175b:0000001300000000
#01952:0000001300000000
#02158:0000001300000000
#02152:0000001300000000
#0003b0:13
#000380:0023000000000000
#000320:00130000
#000350:0000002300000000
#000320:0013
#000350:0000000000230000
#0003b0:00000013
#000380:0000000000000023
#0013b0:0000001300330000
#001390:00000033
#001370:0000000000000023
#002320:13
#002350:0023000000000000
#004350:00132300
#004320:0000003300000000
#0043b1:00001323
#004381:0000000000330000
#006381:00132300
#0063b1:0000003300000000
#006320:00001323
#006350:0000000000330000
#008320:00000013
#008350:0000000000000023
#0083b1:0000000000000013
#009381:0023000000000000
#0093b1:0000000000130000
#009381:0000000000000023
#009320:0000000000130000
#009350:0000000000000023
#0103b0:0013
#010380:00000000000000000000003323000000
#011320:0000001300000000
#011360:0000000000332300
#0123b0:00000013
#012380:0000000000000023
#012321:0000000000000013
#013351:0023000000000000
#013321:0000000000130000
#013351:0000000000000023
#0133b0:0000000000130000
#013380:0000000000000023
#015320:0013
#015360:00000033
#016320:23
#015371:0013
#0153b1:00000033
#016371:23
#020381:13230000
#0203b1:0053000000000000
#020350:13230000
#020320:0053000000000000
#022370:1323
#0223b0:00330000
#022361:00130000
#022321:0023
#024381:0013000000000000
#0243b1:00230000
#024381:0000001300000000
#0243b1:0023
#024351:0000000000130000
#024321:00000023
#024351:0000000000000013
#025321:23
#0253b1:0013003300000000
#025381:00332300
#025321:0000000000130033
#025351:00000033
#026351:23
#0263b1:0013000000000000
#026381:00230000
#026350:0013000000000000
#026320:00230000
#0263b0:0000001300000000
#026380:0023
#026351:0000001300000000
#026321:0023
#0273b1:0013
#027381:00000033
#0283b1:23
#027320:0013
#027350:00000033
#028320:23
#028380:0000000000130000
#0283b0:0000000000000023
#030320:13
#030360:00230000
#0303b1:00130000
#030371:0000002300000000
#0313b1:13
#031371:00230000
#032351:0000000000130000
#032321:0000000000000023
#0343b1:13
#034371:00230000
#034320:00130000
#034360:0000002300000000
#035320:13
#035360:00230000
#036380:0013000000000000
#0363b0:00230000
#036370:00000013
#0363b0:0000000000000023
#037350:0013000000000000
#037320:00230000
#037360:00000013
#037320:0000000000000023
#0383b0:00000013
#038370:0000000000000023
#040360:0013
#040320:0000000000230000
#0403b0:00000000000000000000001300000000
#040370:0000000000000023
#041370:0013
#0413b0:0000000000230000
#041320:00000000000000000000001300000000
#041360:0000000000000023
#042320:0013
#042350:0000000000230000
#042380:00000000000000000000001300000000
#0423b0:0000000000000023
#043320:0013000000000000
#043350:00230000
#0433b1:00130000
#043381:0000002300000000
#043320:0000001300000000
#043350:0023
#0433b1:0013
#043381:0000000000230000
#043320:0000000000130000
#043350:00000023
#0433b1:00000013
#043381:0000000000000023
#044321:0013000000000000
#044351:00000000000000000053000000000000
#045321:23
#0443b0:0013000000000000
#044380:00000000000000000053000000000000
#0453b0:23
#0453b0:0013000000000000
#045380:00230000
#045321:00130000
#045351:0000002300000000
#0453b0:0000001300000000
#045380:0023
#045321:0013
#045351:0000000000230000
#0453b0:0000000000130000
#045380:00000023
#045321:00000013
#045351:0000000000000023
#046351:0013000000002300
#046321:00000000000000530000000000000000
#046380:0013000000002300
#0463b0:00000000000000530000000000000000
#048320:13
#048350:0023000000000000
#0483b0:00130000
#048380:0000002300000000
#0483b0:0013
#048380:0000000000230000
#048320:00000013
#048350:0000000000000023
#049320:0000001300330000
#049340:00000033
#049360:0000000000000023
#0503b0:13
#050380:0023000000000000
#052380:00132300
#0523b0:0000003300000000
#052321:00001323
#052351:0000000000330000
#053381:1323000000000000
#053351:0000001300333300
#053321:0000000000000023
#054351:00132300
#054321:0000003300000000
#0543b0:00001323
#054380:0000000000330000
#055350:1323000000000000
#055380:0000001300333300
#0553b0:0000000000000023
