This file was generated by Ched 2.7.0.0.
#TITLE ""
#ARTIST ""
#DESIGNER ""
#DIFFICULTY 0
#PLAYLEVEL
#SONGID ""
#WAVE ""
#WAVEOFFSET 0
#JACKET ""
#REQUEST "ticks_per_beat 480"
#00002: 4
#BPM01: 130
#00008: 01
#TIL00: ""
#HISPEED 00
#MEASUREHS 00
#0031b:1313000000000000
#00312:1313000000000000
#00318:00000033
#00415:0013001300000000
#00412:0000000000130000
#0041b:13130000
#00418:00001313
#00410:41
#0081b:1300000013000013
#00818:00130013
#00812:0000001313001300
#00815:0013000000000013
#01418:0000230013130000
#01415:23000000000023000013000000000000
#01412:0000000000000013
#0151b:0013000000001300
#01512:0000001300000000
#01518:1313
#01515:00130000
#0161b:0000001300000000
#01618:00130013
#01615:0013000000130013
#01612:0013
#01718:00130013
#01715:0013000000000013
#01712:1300000000130000
#0171b:1300001300000000
#0191b:1300000000130000
#01918:0013000000000013
#01912:1300001300001300
#01915:00130000
#02015:23000013
#02012:0019000013000013
#02018:0000000000130000
#0201b:0000001300000000
#02010:41
#02112:0000001300130000
#02118:0013000000001300
#02115:0000130000000013
#0211b:13
#02215:0000000000130000
#02218:00000000000000000000001300000000
#02212:0000000000000013
#0221b:13
#02217:00130000
#0221f:11
#0111b:1300001300000000
#01115:0013000000000000
#01112:00000013
#01118:0000000000000013
#03012:0000001300130000
#03015:13000000130000001300000000000013
#0301b:00131300
#03018:0000001300130013
#04016:0000001300000000
#04015:00000000000000000000001300000000
#04012:0013000013000000
#04014:00130000
#04017:0013000000000000
#04019:00130000
#0401b:0000001300130000
#04018:0013
#00018:0000130000131300
#00015:0013001300000013
#00012:1300000013130000
#0001b:1313000013000000
#0391b:0013000000000000
#03915:00130000
#03918:0000001300000000
#03912:0000000000140000
#0391a:00000014
#03916:0000000000000014
#03618:00001300000013000000001300000000
#03612:0013001300000000
#03615:0000130000130000
#0361b:00131300
#02818:0000000013130000
#02815:00001300000000000013000000000000
#0281b:00130000
#02812:0000001300000000
#0281f:21
#02915:1313
#0291b:0013000000130000
#02918:00130013
#02912:0000001300000013
#02910:41
#03118:13000000000000130000000000000000
#03115:0000001313000000
#03112:0000000000130000
#04618:0000000000000013
#04615:00000000000000000000000000000013
#0461b:0013000000000000
#04612:0023000000000000
#04610:41
#04718:13
#04715:0013000000000000
#04719:00240000
#04713:0024
#0011b:1313000000000000
#00112:1313000000000000
#00118:00130000
#00115:00000033
#00512:1300002600000000
#0051b:0013000000000000
#00518:0000130000230023
#00515:00000023
#0091b:00130000
#00918:0000001300000000
#00915:0013
#00912:0000000000130000
#01012:0013000000000013
#01015:00130000
#01018:0000001300000000
#0101b:0013
#0231b:1300001300000000
#02315:0013000000000000
#02318:00130000
#02312:0000001300000000
#02612:2300000000130000
#02618:00000013
#02615:0000000000000013
#0271b:23000013
#02715:00230000
#02718:0023
#0351b:0013
#03512:0000000000130000
#03518:0000001300001300
#03515:13000000000000130000000000001300
#04412:0013000000000000
#0441b:0023000000000000
#0521b:0013000013001300
#05212:1300130000130000
#05218:1300130000130000
#05215:0013000013001300
#05312:1313000000000000
#05318:1313000000000000
#05315:0000001300003300
#0531b:0000001300003300
#0021b:1300000013130000
#00218:0013001300002400
#00212:1313000013000000
#00215:0000130000130000
#00214:0000000000000024
#00618:0013001300000000
#0061b:0000000000130000
#00612:13130000
#00615:00001313
#0071b:13
#00712:0013000000000000
#00715:0000130000230023
#00718:0000002600002300
#01212:1300000013000013
#01215:00130013
#0121b:0000001313001300
#01218:0013000000000013
#01210:41
#01312:00130000
#01315:0000001300000000
#01318:0013
#0131b:0000000000130000
#01812:2300001300000000
#01815:00130013
#01818:0013000000130013
#0181b:2313
#0341b:0000001300130000
#03418:13000000130000001300000000000013
#03412:00131300
#03415:0000001300130013
#03215:2300000013130000
#03218:00001300000000000013000000000000
#03212:00130000
#0321b:0000001300000000
#03318:1313
#03312:0013000000130000
#03315:00130013
#0331b:0000001300000013
#03715:00001300000013000000001300000000
#0371b:0013001300000000
#03718:0000130000130000
#03712:00131300
#03818:00001300000013000000001300000000
#03812:0013001300000000
#03815:0000130000130000
#0381b:00131300
#03810:41
#04117:0000001300000000
#04118:00000000000000000000001300000000
#0411b:0013000013000000
#04119:00130000
#04116:0013000000000000
#04114:00130000
#04112:0000001300130000
#04115:0013
#04216:0000001300000000
#04215:00000000000000000000001300000000
#04212:0013000013000000
#04214:00130000
#04217:0013000000000000
#04219:00130000
#0421b:0000001300130000
#04218:0013
#0431b:0013000000000000
#04312:00130000
#0431a:0000001300000000
#04313:0013
#04319:0000000000130000
#04314:00000013
#04316:0000000000000014
#04518:0013000000130000
#04515:00130013
#0451b:0000001300000000
#04512:0013
#04516:0000000000000014
#05112:1313000000000000
#0511b:1313000000000000
#05115:00000033
#04815:0000130000131300
#04818:0013001300000013
#0481b:1300000013130000
#04812:1313000013000000
#04912:1313000000000000
#0491b:1313000000000000
#04915:00130000
#04918:00000033
#05012:1300000013130000
#05015:0013001300000023
#0501b:1313000013000000
#05018:0000130000132300
#05412:0013000013001300
#0541b:1300130000130000
#05415:1300130000130000
#05418:0013000013001300
#0551b:1313000000000000
#05515:1313000000000000
#05518:0000001300003300
#05512:0000001300003300
#02415:23
#02512:23
#0115b:1300006300000000
#01155:0013000000000000
#01152:00000013
#01158:0000000000130000
#01452:0000000000000013
#0155b:0013000000005300
#01552:0000001300000000
#01558:0053
#00058:00000013
#00055:0000000000000013
#0395b:0013000000000000
#03958:0000001300000000
#03955:00130000
#03952:0000000000140000
#0395a:00000014
#03956:0000000000000014
#0225b:53
#02257:00630000
#02858:1300000000530000
#03055:13
#00158:00130000
#00552:0000001600000000
#00952:0000000000530000
#00955:0000000000000013
#0105b:0053
#02352:0000001300000000
#0235b:0000001300000000
#0275b:00000053
#02758:0053
#03158:53
#03155:00006313
#03152:0000000000630000
#03255:1300000000630000
#03658:00000000000000000000006300000000
#0365b:0000000000000013
#04055:00000000000000000000005300000000
#04052:0000000000000013
#0445b:0053000000000000
#04452:0053000000000000
#04759:00140000
#04753:0014
#0175b:0000001300000000
#02152:0000001300000000
#00458:00000013
#00655:00000013
#00758:0000001600000000
#00855:0000000000000053
#0085b:0000000000000053
#0135b:0000000000630000
#01358:0000000000000013
#01258:0000000000000063
#01252:0000000000000063
#01952:0000001300000000
#02052:0029000000000000
#02055:53
#0255b:0013
#02552:13
#0265b:0013
#02652:13
#03458:13
#03755:00000000000000000000005300000000
#03752:0000000000000013
#03858:00000000000000000000006300000000
#0385b:0000000000000013
#04158:00000000000000000000006300000000
#0415b:0000000000000013
#04255:00000000000000000000005300000000
#04252:0000000000000013
#0465b:0063000000000000
#04652:0063000000000000
#02458:0013
#02455:13
#03555:63
#001350:0000001300333300
#001320:0000000000000023
#003380:0000001300333300
#0033b0:0000000000000023
#008350:0000000000000013
#009320:0023000000000000
#0083b1:0000000000000013
#009381:0023000000000000
#009321:0000000000130000
#009351:0000000000000023
#0103b1:0013
#010381:00000000000000000000003323000000
#0113b1:0000001300000000
#011381:0000000000230000
#012381:0000000000000013
#0133b1:0023000000000000
#012320:0000000000000013
#013350:0023000000000000
#0133b0:0000000000130000
#013380:0000000000000023
#015380:0013
#0153b0:00000033
#016380:23
#020350:13230000
#020320:0059000000000000
#0223b0:1323
#022370:00330000
#023320:0000000000130033
#023350:00000033
#024350:23
#0243b0:0013003300000000
#024380:00332300
#024350:0000000000130033
#024320:00000033
#025320:23
#025380:0013003300000000
#0253b0:00332300
#025350:0000000000130000
#025320:00000023
#025350:0000000000000013
#026320:23
#026380:0013000000000000
#0263b0:00230000
#026380:0000001300000000
#0263b0:0023
#027380:0013
#0273b0:00000033
#028380:23
#028380:0000000000130000
#0283b0:0000000000000023
#031380:13
#0313b0:00230000
#031350:00001323
#031320:0000000000330000
#032350:0000000000130000
#032320:0000000000000023
#035350:13
#035320:00230000
#036380:00000000000000000000001300000000
#0363b0:0000000000000023
#037350:00000000000000000000001300000000
#037320:0000000000000023
#038380:00000000000000000000001300000000
#0383b0:0000000000000023
#040350:00000000000000000000001300000000
#040320:0000000000000023
#041380:00000000000000000000001300000000
#0413b0:0000000000000023
#042350:00000000000000000000001300000000
#042320:0000000000000023
#044320:0013000000000000
#045350:23
#0443b1:0013000000000000
#045381:23
#0463b1:0013000000000000
#046381:00000023
#046320:0013000000000000
#046350:00000023
#049380:0000001300003323
#0493b0:0000000000330000
#051350:0000001300003323
#051320:0000000000330000
#0533b0:0000000000133300
#053380:0000000000000023
#053351:0000000000133300
#053321:0000000000000023
#055321:0000000000133300
#055351:0000000000000023
#055380:0000000000133300
#0553b0:0000000000000023
