This file was generated by Ched 2.7.0.0.
#TITLE ""
#ARTIST ""
#DESIGNER ""
#DIFFICULTY 0
#PLAYLEVEL
#SONGID ""
#WAVE ""
#WAVEOFFSET 0
#JACKET ""
#REQUEST "ticks_per_beat 480"
#00002: 4
#BPM01: 130
#00008: 01
#TIL00: ""
#HISPEED 00
#MEASUREHS 00
#0001c:1212000000000000
#00012:1300000012120013
#00015:00000013
#00016:0014000000140000
#0001a:00120000
#00018:0000001200000000
#0001b:0013
#0011c:1212000000000012
#00112:0012001400120000
#00114:00000013
#00116:1400140000140014
#0011a:0000001400000000
#00119:00000013
#00212:12001200000000000013000024000000
#0021b:1300130000130000
#00217:0013
#00216:00001400001300000000000000000000
#00219:0000001300000000
#00214:00000000000000130000000000000000
#00218:00000013
#00215:0000000000130013
#0021a:0000000000000024
#0031b:13000000000000000000001300000013
#00312:1300000000130013
#00318:0013000013001300
#00315:00001300000000130000000000130000
#00319:00330000
#00314:00330000
#00412:00001300001600000000130013161916
#00415:23000000130000160000000000000000
#00418:0000001300000000
#00410:41
#0051b:1313000000002300
#00518:0000132400000000
#00516:0000000000141414
#00512:1300000000230023
#00514:0000002400000000
#0081a:14000000001200000000000000000000
#00818:00001400000000120000000000000000
#00816:00140000
#00814:0000001400000000
#00812:1314
#0081b:0000000013000013
#00817:0000000000130000
#01116:0014001300000014
#0111b:0013001300131300
#01112:0000130013000013
#01117:00130000
#01412:0000240013130019
#01417:00000000000000000013000000000000
#0141b:0000000000000013
#01416:1214001200000000
#01418:00120013
#01415:00000000000000000000000000160016
#0141a:2400002400000000
#01516:0014001400000000
#01518:13
#0151b:00000013130000001300130000000000
#01512:00000000130000131300000000000000
#01517:00000000000000000000001300001300
#01519:00000013
#01515:00000000000000000000000000130000
#01513:00000000000000000000000000000013
#01612:1300000000130013
#01618:0013001300000000
#0161b:23131313
#01616:0000000014141414
#01718:00001300000013000000000000130000
#01716:00000000000000000000001300001300
#01715:00160000130013000000000000000000
#01712:00000016000000000000130000000000
#0171b:13
#01714:00000013
#0171a:00000000000000000000000000000013
#0191b:0000000000130000
#01919:00000013
#01917:0000000000000013
#01914:00000000000000000000000000130000
#01912:13000000000000000000001300000000
#01916:00000000000000000000000000000013
#01915:00161300000013000000000000000000
#01918:00000016130013000000000000000000
#02014:0022000000140000
#02012:23000016000000001400000000001400
#0201b:0000001300000000
#02016:0000001300001400
#0201a:22000000000000000000001400001400
#02018:00160000000000000014000000000000
#02017:00130000
#02010:41
#02114:00000013
#0211b:1300130013000013
#02112:0013001300130000
#02116:0000000013140014
#02115:00160016001600000000000000000000
#0221b:13000013
#02218:0000000000130000
#02219:0013000000000014
#02212:00001313
#02215:00000000000000000000001300000000
#02213:0000000000000014
#02216:13
#02217:00130000
#02214:0000001300000000
#0221f:11
#02315:0000001300190016
#02318:00001300000000000013000016000000
#02312:00000000000000001900000000130000
#0231b:13000000000000000000001300000013
#02612:0000130013130000
#02614:00000013
#02616:0000000000000014
#0261b:0013001313130000
#02615:26000016001600160000000000000000
#02619:00000013
#02812:2613000013000000
#02814:00130000
#02816:0000001300000000
#0281b:1300000013000013
#02818:00000013000000000013000013000000
#02815:0000000000130000
#0281f:21
#0301b:13000000130000000013000000000000
#03017:0000001300000000
#03012:13000000000013000000001300000000
#03015:0000000000161300
#03018:00000000000000000000000000130000
#03016:0013
#03512:1300000013130000
#03513:00000013
#03514:0013000000000013
#03516:00130000
#0351b:13000000000000001300001300000000
#0351a:00000000000000000000000000130000
#03519:00000000000000000000000000000013
#03518:00001300000000130000000000000000
#03515:0000001300000000
#0471a:00140000
#04718:0000000016000013
#04718:0026
#04716:0014001400000000
#04712:13161400
#04712:00260000
#04714:00000018
#04715:00000000000000000000000000000013
#0471b:13
#04012:00001400000014000000000000130000
#04018:00000012000000120000001300001600
#04015:23000013
#04016:00140000
#0401c:00000000001200000000000000000000
#0401b:2300000000130000
#0361a:0000000014000014
#03618:0000000000140000
#03612:00001300000014000000001400001400
#03614:00000000000000000014000000000000
#03616:00000000000000140000000014140000
#03617:0013000000000000
#03615:23
#03918:00001600000016000000000000130000
#03915:26000000161300002600000016000000
#03912:00000013000000130000160000001600
#0391b:00000000000000000000001300000013
#0431b:1313230023002300
#04312:1300000000000013
#0511c:12
#0511a:0012000000000000
#05112:0016001312130000
#05114:00000013
#05116:0000140000000013
#05115:16
#05117:00000000000000000000001300000000
#05119:00000000000000000000000000130000
#0511b:00000000000013000000000000000013
#00712:1313000000002300
#00715:00130000
#00716:0000000000141414
#0071b:1300000000230023
#00714:0000002400000000
#00718:0000002400000000
#0091b:0000000000000013
#00912:0013000000000013
#00916:00000000001400000000000000000000
#00914:00000000000000140000000000000000
#0181b:1300000000130013
#01815:0013001300000000
#01812:23131313
#01816:00001212
#01818:0000000000120012
#0241a:24001400001400001400000014000014
#02416:00000014000014000000001400001400
#02412:24000000140000140000140000140000
#0251b:00001300000000000000000000000013
#02518:00000013001300000000000013001300
#02515:00000000130013001600001300130000
#02512:24000000000000130000130000000000
#02715:0000260013130000
#02718:00000000000000000013001300150015
#02713:0000000000001515
#02712:23
#0271b:23
#02918:1313
#02915:00130013
#02910:41
#03112:1300000000130000
#0311b:0000131300001300
#03118:0013000000000000
#03119:0013
#03117:0000000000130000
#03116:00000000000000130000000013001400
#0371a:00000000000014000000001400001400
#03712:0000000014000014
#0371b:0013000000000000
#03716:24001300000000140000000014140000
#03714:0000000000140000
#03718:00000000000000000014000000000000
#0381b:0013
#03819:0000000000130000
#03813:00000000000013000000001300000000
#03812:0013000000000014
#03815:26000000000000000013000000000000
#03817:00001300000000130000000013000000
#0381a:0000000000000014
#03816:00000000000000000000000000130000
#03810:41
#0411a:0014001400000000
#04115:00000000000000000000001300000000
#04112:23000000001200000000130000001600
#04118:23000013
#0411b:00000000000000000000000000130000
#04116:00000012140000120000000000000000
#04212:00001400000014000000000000160000
#04218:00000000000000000000161300001600
#04215:23000013
#04216:00000014140000140000000000000000
#0421a:00000000001400000000000000000000
#0421b:23
#04414:00130013
#0441b:0013
#04419:00130013
#04412:0013
#04415:13
#04418:23
#04512:0013230023002300
#0451b:0000000000000013
#04618:1300130013000013
#04615:23000000130000001300000000000013
#0461b:0013001300130000
#04612:0013001300130000
#04610:41
#04812:1212000016000000
#0481c:0000000012120000
#04818:16
#04815:0016000000160000
#04814:00120000
#04816:0000001200001400
#0481a:0000000000000014
#04912:12
#04914:0012000000000000
#0491c:0000000012120000
#04919:00000013
#04916:0000140000000014
#04915:16
#04918:0016000000000000
#0491a:0000001400000000
#0501c:1212000000000000
#05012:1600130012000013
#05015:0016001300131300
#05018:00000000130000001600001300002300
#0501b:0000001300002300
#0521c:12
#05218:0012141600000000
#05212:0000000012000016
#05216:0000000000120000
#05214:00000014
#0531c:12120000
#05316:1414140000000014
#05312:0012001412120000
#05314:00000013
#05412:1216000000000000
#0541c:0012
#05418:0000000000161412
#05414:00140000
#05416:0000001200000000
#05512:12120000
#05516:1414141400000014
#0551c:0012001200000000
#0551a:0000000000140000
#05518:00000014
#05514:00000014
#0321b:0013000013000000
#03219:00130000
#03217:0000001300000000
#03212:1300000013000013
#03215:00000013000000000013000013000000
#03218:2600000000130000
#03412:13000000130000000013000000000000
#03416:0000001300000000
#0341b:13000000000013000000001300000000
#03418:0000000000001313
#03415:00000000000000000000160000130013
#03417:0013
#03315:1313
#03318:00130013
#0061b:0013000000131300
#00618:23000000131600000000000000160016
#00615:00000000000013160000000000001900
#0121b:13
#01214:00001400001200000000000000000000
#01212:1400000013000013
#01216:00000000140000120000130000000000
#01218:0000001400000000
#0121a:0014
#01210:41
#01312:0000000000000013
#0131b:0013000000000013
#01316:00000000001400000000000000000000
#01318:00000000000000140000000000000000
#01012:0013000013001300
#01017:0013000013001300
#01016:0000141300130013
#0101b:0000001300000013
#0101a:00000000000000000000001300000000
#00156:00140000
#0115b:0013000000130000
#01156:0000005300001300
#01152:1323
#0145b:0000000000000013
#01556:0014001400000000
#01652:2300000000130013
#0165b:00001313
#04058:0000000000000016
#04752:00160000
#04758:0016
#00055:00000013
#00052:0000000000000013
#00358:0053000000000000
#00355:0063000000000000
#0085b:0000000063000053
#00857:0000000000230000
#02858:00000023000000000000000000000000
#0285b:63
#02855:0000000000530000
#02852:16
#03652:0053000000000014
#0365a:0000000000000014
#03657:0053000000000000
#03958:0016001600000000
#03952:0000000000160016
#03955:00160016
#00458:00130000
#0045b:00000013
#00554:0000001400000000
#00558:0000001400000000
#0055b:13
#00754:0000001400000000
#00758:0000001400000000
#00752:13
#0095b:0000000000000013
#00952:0000000000000013
#01758:0000005300000000
#01755:0000005300000000
#0185b:2300000000130013
#01852:00001313
#0215b:13130000
#02152:0013001300000000
#02256:53
#02257:00530000
#0245a:1414
#02452:14
#02555:0016
#02552:14
#02652:0013
#0265b:0013
#02655:16
#03052:53
#0305b:43
#03152:53
#0315b:00000013
#03156:00000013
#0355b:53
#03558:0023000000000000
#0375a:0000000000000014
#03752:0000000000000014
#0375b:0063000000000000
#03756:0063000000000000
#03852:0053000000000014
#0385a:0000000000000014
#03857:0053000000000000
#04152:0000000000000016
#04258:0000000000000016
#04454:00630063
#0445b:0063
#04458:53
#04459:00530053
#04452:0053
#04455:53
#04658:53535300
#04655:63636300
#0465b:0023002300230000
#04652:0023002300230000
#0515b:0000006300000000
#0515c:12
#05556:0000005400000000
#05552:12
#02058:00260000000000000000000000000000
#02052:00000026000000000000000000000000
#0205a:52
#02054:0052000000000000
#01958:0000006300000000
#01955:0000006300000000
#02958:4300004343000043
#02955:0033330000333300
#03252:53
#03255:00000023000000000000000000000000
#03258:1600000000630000
#03355:3333
#03358:0046430000464300
#03352:0000003600000036
#03452:33
#0345b:63
#00655:00130000
#00652:00000013
#01252:0000000053000063
#01256:0000000000230000
#01352:0000000000000013
#0135b:0000000000000013
#01052:00005353
#01057:00000053
#01056:0000000000230023
#0105b:0000000000000023
#00252:00000034
#0025a:0000000000000044
#04852:12
#0485c:0012
#04952:12
#0505c:12
#05052:0012
#0525c:12
#05252:0012
#0535c:12
#05452:12
#0545c:0012
#000320:00130000
#000350:0000002300000000
#0003b0:00000013
#000380:0000000000000023
#003380:0013000000000000
#003390:00330000
#0033b0:0000002300000000
#003351:0013000000000000
#003341:00330000
#003321:0000002300000000
#004381:13230000
#0043c1:0032000000000000
#0043b1:00001323
#004381:0000000000320000
#005321:0012000000000000
#005341:0000002400000000
#006351:13230000
#006321:0032000000000000
#006321:00001323
#006361:0000000000320000
#0073c1:0012000000000000
#007381:0000002400000000
#0083b1:00001323
#008371:0000000000530000
#008320:00000013
#008350:0000000000000023
#0083b1:0000000000000013
#009371:0023000000000000
#0093c1:00000000122200000000000000000000
#0093a1:00000000000012220000000000000000
#009321:0000000013330000
#009351:00000023
#009380:00000000000000001222000000000000
#0093b0:0000000000130000
#009380:00000023
#010320:00001333
#010360:0000000000330033
#011320:23
#010371:00000013
#0103b1:0000000000000033
#011371:23
#011361:0000001300332300
#011321:0053
#012321:00001323
#012361:0000000000530000
#0123b0:00000013
#012380:0000000000000023
#012321:0000000000000013
#013361:0023000000000000
#013321:00000000122200000000000000000000
#013341:00000000000012220000000000000000
#0133b1:0000000013330000
#013381:00000023
#013360:00000000000000001222000000000000
#013320:0000000000130000
#013350:00000023
#016320:13
#016350:0000002300000000
#017380:0000133300000000
#0173b0:0023
#017351:0000001300000000
#017321:0023
#0183b1:13
#018381:0000002300000000
#019351:0000133300000000
#019321:0023
#019380:0000001300000000
#0193b0:0023
#0203a0:1222000000000000
#020380:00560000000000000000000000000000
#020341:0012220000000000
#020321:00000056000000000000000000000000
#022361:13
#022321:00230000
#022370:00130000
#0223b0:0023
#023320:13230000
#023350:0033000000000000
#0233b1:00132300
#023381:0000003300000000
#0283b1:1300002300000000
#028381:00000053000000000000000000000000
#028351:0000000000130000
#028321:0000000000000023
#029351:1323000000000000
#0293b0:00001323000000000000000000000000
#029380:0000132300000000
#029321:00000000000013230000000000000000
#029351:0000000013230000
#0293b0:00000000000000000000132300000000
#029380:0000000000001323
#029321:00000000000000000000000000001323
#030321:13
#030361:00230000
#030321:0000000000000013
#030341:00000000000000000000000000000033
#031321:33
#031361:0000002300000000
#0303b0:0000000000000013
#030390:00000000000000000000000000000033
#0313b0:23
#032321:1300002300000000
#032351:00000053000000000000000000000000
#032381:0000000000130000
#0323b1:0000000000000023
#033381:1626000000000000
#033320:00001323000000000000000000000000
#033320:0000162600000000
#0333b1:00000000000013230000000000000000
#033381:0000000016260000
#033320:00000000000000000000132300000000
#033320:0000000000001626
#0333b1:00000000000000000000000000001323
#0343b1:13
#034371:00230000
#0353b1:13230000
#035381:0053000000000000
#036321:0013000000000000
#036361:00230000
#036370:0013000000000000
#0363b0:00230000
#0373b0:0013000000000000
#037370:00230000
#037361:0013000000000000
#037321:00230000
#038321:0013000000000000
#038361:00230000
#038370:0013000000000000
#0383b0:00230000
#040360:0014
#040320:0000000000240000
#041360:0014
#0413a0:0000000000240000
#042360:0014
#042320:0000000000240000
#043320:0013000000000000
#043350:00230000
#0433b1:00130000
#043381:0000002300000000
#043320:0000001300000000
#043360:0023
#0433b1:0013
#043371:0000000000230000
#043320:0000000000130000
#043370:00000023
#0433b1:00000013
#043361:0000000000000023
#044381:13
#044341:00330033
#0443b1:0033
#045381:23
#044350:13
#044390:00330033
#044320:0033
#045350:23
#0453b0:0013000000000000
#045380:00230000
#045321:00130000
#045351:0000002300000000
#0453b0:0000001300000000
#045370:0023
#045321:0013
#045361:0000000000230000
#0453b0:0000000000130000
#045360:00000023
#045321:00000013
#045371:0000000000000023
#046351:13000023
#0463b1:0033003300330000
#046381:00333300
#046380:13000023
#046320:0033003300330000
#046350:00333300
#0483b0:00130000
#048380:0000002300000000
#048320:00000013
#048360:0000000000000023
#049320:0000001400000022
#049360:0000000000340000
#049340:00000033
#0513b0:0000001300000000
#051370:0000000000230000
#052320:13
#052350:0023000000000000
#052320:00130000
#052350:0000002300000000
#0523b0:0013
#052380:0000000000230000
#0523b0:00000013
#052380:0000000000000023
#0533a0:0000001400000000
#053360:0000000000340000
#053390:00000033
#0533c0:0000000000000022
#0543b0:13
#054380:0023000000000000
#0543b0:00130000
#054380:0000002300000000
#054320:0013
#054350:0000000000230000
#054320:00000013
#054350:0000000000000023
#055360:0000001400000000
#055320:0000000000240000
