This file was generated by Ched 2.7.0.0.
#TITLE ""
#ARTIST ""
#DESIGNER ""
#DIFFICULTY 0
#PLAYLEVEL
#SONGID ""
#WAVE ""
#WAVEOFFSET 0
#JACKET ""
#REQUEST "ticks_per_beat 480"
#00002: 4
#BPM01: 130
#00008: 01
#TIL00: ""
#HISPEED 00
#MEASUREHS 00
#0001a:1414
#0011a:1414
#00212:1414
#00312:1414
#00418:2414
#00414:00140000
#00410:41
#00514:1414
#00518:00140000
#00814:00001414
#0081a:24140000
#00918:14140000
#00912:00001414
#01218:00001414
#01212:14140000
#01210:41
#01314:14140000
#0131a:00001414
#0061a:1414
#00614:00140000
#00712:1414
#00718:00140000
#0161a:0014
#01612:00140000
#01614:00000014
#01618:24
#01814:14
#01812:0014
#0181a:00140000
#01818:00000014
#02214:0014
#02212:14
#0221a:00140000
#02218:00000014
#0221f:11
#02018:0014
#0201a:14
#02012:00140000
#02014:00000014
#02010:41
#02812:00160000
#02818:26001414
#02814:0000000000140000
#0281f:21
#02912:16
#02918:0000160000140000
#02914:00001414
#02910:41
#04712:00141400
#0471a:00141400
#04818:1414
#04812:00140000
#04914:1414
#0491a:00140000
#05018:14
#05014:00140000
#0501a:0014
#05114:14
#05118:00140000
#05112:0014
#05512:00000016
#05518:0000000000160016
#0521a:00000014
#05314:00000014
#05418:00000014
#03218:0000160000140000
#03214:00000014
#03212:1614
#03314:0000000000140000
#0331a:0014
#03318:16000014
#03312:00160000
#04412:14
#0441a:14
#04414:0014
#04418:0014
#04614:0014
#04618:0014
#04612:24
#0461a:24
#04610:41
#03812:00140000
#0381a:14
#03810:41
#03718:00140000
#03712:14
#03614:00140000
#0361a:24
#0421a:00140000
#04212:14
#04114:00140000
#0411a:14
#04018:00140000
#04012:14
#04318:00160000
#04315:0016
#04312:00000016
#04313:14
#04319:14
#02312:0034340000001400
#0231a:00000014
#02412:00000014
#0241a:00000014
#02418:26
#0251a:00000014
#02512:26000014
#02612:00000014
#0261a:00000014
#02615:26
#03019:00000014
#03013:00000014
#03018:14
#03119:00000014
#03113:00000014
#03114:14
#03413:00000014
#03419:00000014
#03412:14
#03513:00000014
#03519:00000014
#0351a:14
#02713:14140000
#02719:14140000
#03912:24
#0391a:0024
#04512:00260000
#04515:0026
#04518:00000026
#0211a:0034340000000000
#01914:0034340000000000
#01718:0034340000000000
#04752:0014
#0475a:0014
#04452:54
#0445a:54
#04454:0024
#04458:0024
#04654:0024
#04658:0024
#04652:54
#0465a:54
#03952:00140000
#0395a:00000014
#0205a:14
#03058:64
#03452:64
#0355a:64
#03154:64
#02753:00000014
#02759:00000014
#0103a0:14
#010370:0034
#011370:34
#0113a0:0024
#014320:14
#014350:0034
#015350:34
#015320:0024
#017380:1434340000000000
#0173a0:0000002400000000
#019340:1434340000000000
#019320:0000002400000000
#0213a0:1434340000000000
#021380:0000002400000000
#023320:1434340000000000
#023340:0000002400000000
#024380:1636363626000000
#025320:1636363626000000
#026350:1636363626000000
#027330:00001424
#027391:00001424
#030381:14
#0303a1:0024
#031341:14
#031321:0024
#034321:14
#034341:0024
#0353a1:14
#035381:0024
#036381:00001424
#037341:00001424
#038381:00001424
#039321:14240000
#0393a1:00001424
#040341:0014
#040321:00000024
#041381:0014
#0413a1:00000024
#042341:0014
#042321:00000024
#044321:14
#044341:0054
#045321:24
#0443a0:14
#044380:0054
#0453a0:24
#046320:14
#046340:0054
#047320:24
#0463a1:14
#046381:0054
#0473a1:24
#0523a1:1424
#052381:00340000
#053341:1424
#053321:00340000
#054381:1424
#0543a1:00340000
#055321:1424
#055341:00340000
