This file was generated by Ched 2.6.2.0.
#TITLE "easy"
#ARTIST ""
#DESIGNER ""
#DIFFICULTY 0
#PLAYLEVEL
#SONGID ""
#WAVE ""
#WAVEOFFSET 0
#JACKET ""
#REQUEST "ticks_per_beat 480"
#00002: 4
#BPM01: 185
#00008: 01
#TIL00: ""
#HISPEED 00
#MEASUREHS 00
#00119:14
#00213:14
#02712:0016
#02718:26
#03114:0014
#0311a:14
#03218:14
#03212:0014
#04319:14
#04413:14
#0051a:14
#00614:14
#03319:14
#03313:0014
#04519:14
#04613:14
#05119:14
#0511f:11
#05219:14
#05313:14
#05413:14
#00319:14
#00413:14
#00913:14
#00910:41
#01019:14
#01312:14
#01418:14
#01113:14
#01219:14
#01718:14
#01710:41
#01814:14
#02114:14
#02218:14
#02313:14
#02419:14
#02918:0016
#02912:16
#03518:0016
#03512:26
#03918:0014
#03912:14
#04014:14
#0401a:0014
#04113:14
#04119:0014
#03712:0016
#03718:16
#05919:14
#05913:14
#06112:0016
#06118:26
#0611f:21
#06218:1616
#06210:41
#06312:16
#06318:0016
#06412:1616
#0651a:14
#06514:0014
#06618:14
#06612:0014
#06918:0016
#06912:26
#07012:1616
#07118:16
#07112:0016
#07218:1616
#07312:14
#07318:0014
#07414:14
#0741a:0014
#07712:14
#07710:41
#07818:14
#07912:14
#08018:14
#08114:14
#0821a:14
#08314:14
#0841a:14
#08512:14
#08618:14
#08714:14
#0881a:14
#08912:14
#09018:14
#09114:14
#0921a:14
#03419:14
#04213:14
#09313:14
#09319:0014
#09519:14
#09513:0014
#06013:24
#06019:24
#02610:41
#03610:41
#0073a0:14
#0083a0:24
#015320:14
#016320:24
#019380:14
#020380:24
#025330:14
#026330:24
#028380:16362600
#030320:16362600
#036320:16362600
#038380:16362600
#047390:14
#048390:24
#049330:14
#050330:24
#055390:14
#056390:24
#057330:14
#058330:24
#067390:1424
#068330:1424
#075330:1424
#076390:1424
#094330:14342400
#096390:1400340034003424
