This file was generated by Ched 2.6.2.0.
#TITLE "expert"
#ARTIST ""
#DESIGNER ""
#DIFFICULTY 0
#PLAYLEVEL
#SONGID ""
#WAVE ""
#WAVEOFFSET 0
#JACKET ""
#REQUEST "ticks_per_beat 480"
#00002: 4
#BPM01: 185
#00008: 01
#TIL00: ""
#HISPEED 00
#MEASUREHS 00
#00018:0000000000000013
#00115:1300000000130013
#0011b:0000130000000013
#00119:0000001300000000
#00117:0013
#00113:00000013
#0021b:0013000000000013
#00212:1300001300000013
#00215:00001313
#00217:0000000000130000
#0041b:0013000000000000
#00413:0000001300000000
#00416:0013
#00419:0000000000130000
#00412:1300000000000013
#00417:0000000000000013
#00516:0013000000000000
#00518:00130000
#00515:0000001300130000
#00512:0000000013000013
#0051b:0000000000000013
#00613:0000001300000000
#00615:0013
#00617:0000000000130000
#00619:00000013
#00616:0000000000000013
#00618:13
#00612:0013000000000000
#00716:0013000000000000
#00718:00130013
#00715:0000001300130000
#0071b:0000000000000013
#00712:0000000000000013
#00815:0000130000130000
#0081b:0013000000000013
#00812:0013000013000000
#00818:00000000000000000013000023000000
#0101b:0013001333003300
#01012:13131313
#01018:0000000000130000
#0121b:0013000000000000
#01212:13131313
#01217:0000001300000000
#01219:0000000000130000
#01312:0013000000000000
#01315:00130013
#01318:00000000000013000000000000130000
#0131b:0000000013000013
#01416:0000000000130000
#01414:00000013
#01419:0013000000000000
#01412:0000000000000023
#01517:0013000000000000
#01519:00130000
#0151b:0000002300000000
#01512:0000000000003636
#01518:0000000000003636
#01615:0000000000130000
#01618:3636360000001300
#0161b:0000000000000013
#01612:3636360000000000
#01716:12
#01718:0000000000001212
#0171a:12
#01710:41
#01812:0012000000000000
#01819:00121200
#01815:0000001200000000
#0181c:0000000000000012
#01916:1212
#0191a:0012001200000000
#01914:00120000
#0191c:0000000000120000
#02012:0012000000000000
#02015:00120000
#02018:0000001200000012
#0201a:0000000000120000
#02014:00000012
#0261b:0000000013000023
#02618:0000000000130000
#02615:00000013
#02612:2500250013000013
#02619:0025250000000000
#02610:41
#0271b:0013130013000000
#02712:0000000000001313
#02815:1300001300000000
#02818:0013130000000000
#02812:0013
#0281b:0000000013000013
#02816:0000000000000013
#02919:13000013
#02917:0013130000130000
#02916:0000000013000013
#02912:0000130000130000
#02914:0000001300001300
#0291b:0000000000000013
#0301b:0013000000000000
#03015:00130000
#03112:0000001300000000
#03117:0000001300000000
#03116:0000000000000033
#03212:0000000000130000
#03215:00000013
#03218:0000000000000013
#03217:13
#0321b:00130000
#03216:0033000000000000
#0331b:1300001300130013
#03318:0013000000001300
#03315:0000130000130013
#03312:1300001300000000
#04018:00000013
#04018:00000013
#0401b:0000000000130000
#04015:0000000000000013
#04016:13
#04012:00130000
#04017:0033000000000000
#04118:0000130013130000
#04118:00130000
#04112:1300001300000000
#04115:0013000000000000
#0411b:1300001300000000
#04215:0013000013001300
#04218:0000001300000000
#04212:0000000000130023
#0421b:00000013
#00912:13131313
#00918:2300133333333300
#0091b:00000000000000000013000000000000
#00910:41
#01112:13131313
#01118:0013001333003300
#0111b:0000000000130000
#0031b:0013001300000013
#00318:00001313
#00316:0000000000130000
#00315:1300000000000013
#03413:0013
#03414:0000000000130000
#03419:00000000000000000000001300000000
#0341a:00000000000000000013000000000000
#0341b:00000000000000130000000000001300
#03418:00001300130000000000000000130000
#03415:00000013000000000000000013000000
#03412:0000001300000023
#03512:0013130013000000
#0351b:0000000000001313
#03618:1300001300000000
#03615:0013130000000000
#0361b:0013
#03612:0000000013000013
#03617:0000000000000013
#03610:41
#03812:0013000000000013
#03817:0000000000000013
#03818:00130000
#03916:0013001300000000
#03917:0000000000000033
#04317:0013000000000000
#04312:00330000
#04315:0000000000330000
#04416:0013000000000000
#0441b:00330000
#04418:0000000000330000
#04712:0013000000000013
#04717:0013000000000013
#04715:00130013
#04718:0000001300130000
#0471b:0013
#04716:0013
#0481b:0013000000000013
#04816:0013000000000013
#04818:00130013
#04815:0000001300130000
#04812:0013
#04817:0013
#04912:0013000000001313
#04917:0013000000000013
#04919:00130000
#0491b:0000001313000000
#04916:0013
#04914:0000000000130000
#0501b:0013000000001313
#05016:0013000000000013
#05014:00130000
#05012:0000001313000000
#05017:0013
#05019:0000000000130000
#04517:0013000000000000
#04512:00330000
#04515:0000000000330000
#04616:0013000000001313
#0461b:0013000000000000
#04619:00130000
#04617:0000001313000000
#04614:0000000000130000
#02518:00130000130013000015001500150015
#02515:13001300001300000000000000000000
#02513:0000000015151515
#02116:0000001300130000
#0211b:23131313
#02112:13
#02216:0013000000000000
#02212:0000001300130000
#02215:00000013
#02218:0000000000000013
#0221b:13131313
#05112:13
#05117:13
#0511f:11
#05216:13
#0521b:13
#05214:0000000000000012
#0531b:12
#05319:00120000
#05317:0012
#05315:0000000000120012
#05313:00000012
#0531c:0000000000000012
#0531a:00000012
#05418:0012000000000000
#05414:0000001200120000
#05412:0012
#0541a:0000001200120000
#05416:0000000000000012
#0541c:0000000000000012
#05516:1200000012001212
#0551c:0000000000001212
#05618:0000000012000013
#05612:0000000000130000
#05615:00000013
#0591b:0000130000000013
#05912:1313
#05918:00000013
#05915:0000130000130000
#06012:1424142400000000
#0601a:2414242400000000
#06115:0000000000001313
#0611b:13
#06118:0000000000000013
#06116:23
#0611f:21
#06218:0000000000130013
#0621b:00000013
#06212:0000000000000013
#06210:41
#06318:0000000000130013
#0631b:00000013
#06315:0000000000000013
#06416:00130000
#06414:0000001300000000
#06412:0000000013000013
#0641b:0000000000130000
#06415:0000000000130000
#06418:0000000000000013
#0651b:0013000000000000
#06518:00131300
#06512:0000130000001313
#06515:0000000000130000
#0661b:0000001300000013
#06616:0000001300000000
#06618:0013000013000000
#06615:1300000000130000
#06612:0000000000001313
#06617:00000013
#06719:1300000000130000
#06717:0013000013000000
#06715:00130000
#06713:0000001300000000
#0671b:0000000000001313
#06712:0000000013000013
#06714:0000000000330000
#06814:1300000000130000
#06816:0013000013000000
#06818:00130000
#0681a:0000001300000000
#06812:0000000000001323
#0681b:0013
#06817:0000000000000023
#06819:0000000000330000
#06918:0000000000001323
#06915:0000000000000013
#07015:0000000000130013
#07012:00000013
#0701b:0000000000000023
#07115:0000000000130013
#07112:00000013
#07118:0000000000000013
#07217:00130000
#07219:0000001300000000
#0721b:0000000013000013
#07212:0000000000130000
#07218:0000000000130000
#07215:0000000000000023
#07312:0013000000000000
#07315:00131300
#0731b:0000130000001313
#07318:0000000000130000
#07412:0000001300000013
#07417:0000001300000000
#07415:0013000013000000
#07418:1300000000130000
#0741b:0000000000001313
#07416:00000013
#07512:0013000000001313
#07515:00130000
#07518:0000001300000000
#07516:0013
#07514:0000000000130000
#0751b:0000000013000013
#07519:0000000000330000
#0761b:0013000000001300
#07618:00130000
#07615:0000001300000000
#07617:0013
#07619:0000000000130000
#07612:0000000013000023
#07614:0000000000330000
#0771b:1313
#07715:00000000000000130000000000000000
#07712:0013333333330013
#07718:0013130000001313
#07710:41
#08415:0000001300000013
#08418:0013000000130000
#0841b:00131313
#08412:00131313
#08615:0000000013001313
#08612:0013130000000000
#0881b:00000013000000000000000000000000
#08815:0013
#08812:00000000000000000000001300000000
#08818:0000000000000013
#09116:13
#09118:00000000000000000000000000000013
#09115:00000000000000000000000000000013
#09312:0013000000000000
#09315:0000130000001313
#09318:0000001300130000
#0931b:0013
#0941b:0013000000000000
#09418:0000130000001313
#09415:0000001300130000
#09412:0013
#09514:0012000000000000
#09516:0000120000001212
#09518:0000001200120000
#0951a:0012
#03714:13000013
#03716:0013130000130000
#03717:0000000013000013
#0371b:0000130000130000
#03719:0000001300001300
#03712:0000000000000013
#05712:00130000
#05717:0000001300000000
#05714:0013
#05719:0000000000130000
#05716:00000013
#0571b:0000000000000013
#05812:1313
#05818:0013000000000000
#05815:0000130000130000
#0581b:00000000000013000000003333333333
#0961a:0012000000000000
#09618:0000120000001212
#09616:0000001200120000
#09614:0012
#02312:13131313
#0231b:13131313
#02315:0013000000130000
#02318:0000001300000013
#02412:1300001300001300
#0241b:1300001300001300
#02415:0013000000130000
#02418:0000130013000013
#09212:00000000000000130000000000000000
#0921b:00000000000000130000000000000000
#08518:0000000013001313
#0851b:0013130000000000
#08718:0013000013000013
#0871b:00130013
#08915:0013000013000000
#08912:00130013
#07912:00000000000000130000000000000000
#07915:0013333333330013
#07918:0013130000001313
#0791b:0013
#08116:00000000000000130000000000000000
#08112:0013333333330013
#0811b:0013000013000023
#08118:00130023
#07818:00000000000000130000000000000000
#0781b:0013333333330013
#07815:0013130000001313
#07812:0013
#08217:00000000000000130000000000000000
#0821b:0013333333330013
#08212:0013000013000023
#08215:00130023
#08316:00000000000000130000000000000000
#08312:0013333333330013
#0831b:0013000013000023
#08318:00130023
#08016:0000001300000000
#08018:00001300000000000033330000000000
#08012:00130000
#0801b:0000001300000000
#08015:0000000000000023
#0801a:00000000000000330000000000000000
#08019:0033
#08017:00000000000000000000003333330000
#01756:52
#02652:0000000000000053
#0265b:0000000000000013
#0275b:0053
#02852:0013
#0285b:0013
#02856:0000000000000053
#0305b:0053000000000000
#03055:00530000
#03058:00000013
#03052:0000000000000013
#03552:0063
#0365b:0013
#03652:0013
#03657:0000000000000063
#0345b:0000000000000063
#03452:0000000000000013
#04152:0000000000000013
#04158:0000000000130000
#0425b:0013000000000000
#04357:0053000000000000
#0435b:0000000000000013
#04456:0053000000000000
#04452:0000000000000013
#04752:0000000000000013
#0485b:0000000000000013
#04952:0000000000000013
#01452:0000001300000033
#0505b:0000000000000013
#04557:0053000000000000
#0455b:0000000000000013
#04656:0053000000000000
#04657:0053
#0465b:0000000000000013
#00155:0000000000000053
#00252:2300000000000063
#00457:0000000000000053
#00452:23
#00355:2300000000000053
#0155b:0000004300000000
#02152:5300000000000013
#02156:0000000000530000
#02256:0013000000000000
#02252:0000001300000000
#02957:00630000
#0055b:0000000000000053
#00658:23
#05556:0000000000000052
#0615b:53
#06155:0000000000000053
#06156:13
#06358:0000000000000053
#06452:0000000000000053
#06252:0000000000000053
#06752:0000000053000013
#0685b:0063
#06857:0000000000000013
#06852:0000000000000053
#07155:0000000000000063
#0725b:0000000000000063
#0755b:0000000063000013
#07552:0000000000000013
#07652:0053
#08655:0000000000000063
#0865b:0000000000000013
#08455:0000000000000063
#08855:0063
#0885b:00000023000000000000000000000000
#08852:00000000000000000000002300000000
#08858:0000000000000063
#09156:63
#09155:00000000000000000000000000000023
#09158:00000000000000000000000000000023
#0105b:0013005300000000
#01058:0000000000230000
#01158:0013005300000000
#0115b:0000000000230000
#0125b:0013000000000000
#00958:00530000
#0095b:00000000000000000023000000000000
#03756:00530000
#03852:0063000000000000
#03858:00630000
#0325b:00130000
#04052:00130000
#0665b:0000000000000013
#0745b:0000000000000013
#07452:0000000000000013
#09252:00000000000000530000000000000000
#0925b:00000000000000530000000000000000
#09258:00000013
#09255:00000013
#08558:0000000000000063
#08552:0000000000000013
#07755:00000000000000230000000000000000
#07752:0053000000000013
#08752:0000000000000013
#08758:0000000000000053
#0895b:0000000000000013
#07952:00000000000000230000000000000000
#07955:0063000000000013
#08156:00000000000000230000000000000000
#08152:0053000000000013
#06958:0000000000000053
#0705b:0000000000000053
#07858:00000000000000230000000000000000
#0785b:0063000000000013
#08257:00000000000000230000000000000000
#0825b:0063000000000013
#08356:00000000000000230000000000000000
#08352:0053000000000013
#0805b:0000005300000000
#001350:0000000000000013
#002320:53
#002350:0023000000000000
#002320:0000000000000013
#003350:53
#003320:0023000000000000
#003350:0000000000000013
#004320:53
#004350:0023000000000000
#004370:0000000000000013
#0053b0:0023000000000000
#0053b0:0000000000000013
#006380:53
#0063b0:0023000000000000
#0063b0:0000000000000013
#0073b0:0023000000000000
#009380:0000133333333323
#0093b0:00000000000000000053000000000000
#0103b0:0000001333003323
#010380:0000000000330000
#011380:0000001333003323
#0113b0:0000000000330000
#0123b0:0000000000000013
#0133b0:0023000000000000
#013360:0000000000000013
#013340:00000000000000000000000000000053
#014340:0033000000000000
#014320:00000053000023000000000000000000
#0143b1:0000001300230000
#015321:0000000000163636
#016321:3636362200000000
#015380:0000000000163636
#016380:3636360000000000
#0163c0:0000002200000000
#017360:12
#017320:00000022
#019320:0000000000120022
#019381:0000000000000012
#020381:0022000000000000
#021321:13
#021361:00230000
#021361:0000000000130000
#021321:0000000000000023
#026321:0000000000000013
#027361:0023
#0273b0:0013
#027370:0000000000000023
#028360:0000000000000013
#029320:0023000000000000
#029370:00130000
#0293b0:0023
#0303b0:0013000000000000
#030380:00000023
#030351:00130000
#030321:0000000000000023
#0313b1:00001323
#031360:0000000000001333
#032320:33
#032360:0033230000000000
#0343b0:0000000000000013
#035370:0023
#035321:0013
#035361:0000000000000023
#036371:0000000000000013
#0373b1:0023000000000000
#037361:00130000
#037321:0023
#038321:0013000000000000
#038351:0000000053230000
#038380:00130000
#0383b0:0000000000230000
#0393b0:0013002300000000
#039320:00001323
#039371:0000000000001333
#0403b1:33
#040371:0033230000000000
#041351:0000000000130000
#041321:0000000000000023
#041380:0000000000000013
#0423b0:0023000000000000
#042370:0000000000000013
#043370:0033000000000000
#0433b0:0000000000000023
#043321:0013330000000000
#043351:0000002300000000
#043351:0000000013330000
#043321:00000023
#043361:0000000000000013
#044361:0033000000000000
#044321:0000000000000023
#0443b0:0013330000000000
#044380:0000002300000000
#044380:0000000013330000
#0443b0:00000023
#044370:0000000000000013
#045370:0033000000000000
#0453b0:0000000000000023
#045321:0013330000000000
#045351:0000002300000000
#045351:0000000013330000
#045321:00000023
#045361:0000000000000013
#046361:0033000000000000
#046321:0023
#046370:0013
#0463b0:0000000000000023
#0553c0:1222
#055360:0000000000000012
#056320:0022
#0583b0:00000000000000000000133333333333
#059380:23
#0613b0:13
#061380:00000023
#061350:0000000000000013
#062320:0000000000230000
#062320:0000000000000013
#063350:0000000000230000
#063380:0000000000000013
#0643b0:00230000
#064320:0000000000000013
#065350:0023000000000000
#065320:0000001323000000
#0653b0:0000000000132300
#0653b0:0000000000000013
#0663b0:23
#066320:0013230000000000
#067320:0013
#067340:0000000000330000
#067360:00000023
#0683b0:0013
#068390:0000000000330000
#068370:00000023
#068320:0000000000000013
#069350:00000023
#069380:0000000000000013
#0703b0:0000000000230000
#0703b0:0000000000000013
#071380:0000000000230000
#071350:0000000000000013
#072320:00230000
#0723b0:0000000000000013
#073380:0023000000000000
#0733b0:0000001323000000
#073320:0000000000132300
#073320:0000000000000013
#074320:23
#0743b0:0013230000000000
#0753b0:0013
#075390:0000000000330000
#075370:00000023
#076320:0013
#076340:0000000000330000
#076360:00000023
#077320:0013333333332300
#077350:00000000000000530000000000000000
#0783b0:0013333333332300
#078380:00000000000000530000000000000000
#079350:0013333333332300
#079320:00000000000000530000000000000000
#0803b0:0000001300000000
#0803a0:00000000000000330000000000000000
#080390:0033
#080380:00000000000000000033330000002300
#080370:00000000000000000000003333330000
#081320:0013333333332300
#081360:00000000000000530000000000000000
#0823b0:0013333333332300
#082370:00000000000000530000000000000000
#083320:0013333333332300
#083360:00000000000000530000000000000000
#084350:0000000000000013
#085320:0000000000000023
#085381:0000000000000013
#0863b1:0000000000000023
#086350:0000000000000013
#087320:0000000000000023
#087381:0000000000000013
#0883b1:00000053000000000000000000000000
#088381:0023
#088350:0000000013000023
#088320:00000000000000000000005300000000
#088381:0000000000000013
#0893b1:0000000000000023
#089350:0000000000000013
#090320:00230000
#090371:00130000
#090391:0023
#090340:0013
#090360:00000023
#090391:00000013
#0913b1:23
#091360:13
#091320:0000000000230000
#091350:00000000000000000000000000000013
#092320:00000000000000330000000000000000
#092350:00000023
#091381:00000000000000000000000000000013
#0923b1:00000000000000330000000000000000
#092381:00000023
