This file was generated by Ched 2.6.2.0.
#TITLE "hard"
#ARTIST ""
#DESIGNER ""
#DIFFICULTY 0
#PLAYLEVEL
#SONGID ""
#WAVE ""
#WAVEOFFSET 0
#JACKET ""
#REQUEST "ticks_per_beat 480"
#00002: 4
#BPM01: 185
#00008: 01
#TIL00: ""
#HISPEED 00
#MEASUREHS 00
#00018:0000000000000013
#00115:1300001300000013
#0011b:00130013
#00118:0013
#00112:0000000000130000
#00218:1300000000130000
#00215:0013000013001300
#0021b:0000001300000013
#00315:0013000000130000
#00312:0000001300000000
#00318:00001313
#00412:0000001300000000
#00415:0013
#00418:0000000000130000
#00515:0000130000000013
#00518:0000001300000000
#00512:0013
#0051b:0000000000130000
#00618:1300000000130000
#00615:0013000013000000
#0061b:0000001300000000
#00612:00000013
#00715:00130000
#00718:0000001300000000
#00712:0000000000130000
#0071b:0000000000000013
#00815:0013130000001300
#0081b:0000000000130000
#00818:0000000000000013
#0091b:0000001300000013
#00915:0000000000130000
#00918:00001313
#00912:0000000000000013
#00910:41
#01015:0013000013001300
#01012:0000001300000013
#01018:0000000000130000
#0101b:0000000000000013
#01215:0013000000000000
#0121b:0000000000330000
#01312:0013000000000000
#01315:00130000
#01318:0000001300001300
#0131b:0013
#01418:0000000000130000
#01415:00000013
#0141b:0000000000000023
#01412:0033000000000000
#0151b:0000000000130000
#01515:0013000000001300
#01518:0000130000000013
#01512:0000002300000000
#01612:13
#01618:0013000000001300
#01615:0000130000130000
#0161b:0000001300000000
#01715:13
#01718:0000000000000013
#01710:41
#01812:0013000000000000
#01818:00130000
#01815:0000001300000000
#0181b:0000000013000013
#01915:1313
#01918:0013001300000013
#01912:00130000
#0191b:0000000000130000
#02015:00130013
#02018:0000001300000013
#0201b:0000000000130000
#02012:0013000000000000
#02112:1300000000130000
#02118:0000001300000000
#02117:0000000000130000
#02119:0000000000000013
#02114:0000000000000013
#0221b:0013001300000000
#02212:0000001300130000
#02215:0000000000000013
#02218:00000013
#02216:0013000000000000
#0261b:0013
#02615:0000000000130000
#02618:00000013
#02612:0000000000000013
#02613:2424240000000000
#02619:2424240000000000
#02610:41
#02815:1313
#02818:0013000000000000
#02812:00130000
#0281b:0000001300000013
#02918:0000000000130000
#02912:0000000000130000
#02915:13
#02919:0013000000000000
#02913:00130000
#02917:0000001300000000
#0301b:00130000
#03015:0013000000000000
#03112:0000001300000013
#03215:0013000000000013
#03218:00130013
#03212:0000000000130000
#0321b:13
#0331b:1300001300130013
#03315:0013000000001300
#03318:00130000
#03312:0000001300000000
#04118:0013000013000000
#04112:1300000000000013
#04115:0000130000130000
#0411b:0000001300000000
#04218:0000001300000023
#04215:0013
#0421b:0000000000130000
#04212:00000013
#01118:0013000000130000
#0111b:0000001300000013
#01115:0013
#01112:00000013
#02315:0013001300000000
#02312:0000000000130013
#0231b:13130000
#02318:00001313
#02415:0013000000130000
#02412:0000001300000013
#0241b:1313
#02418:00130013
#0271b:0000000000000013
#03818:0000130000000013
#03812:0000130000000013
#0391b:0013001300000013
#03915:0013000000000000
#03412:0013
#03418:0000000000130000
#03415:00000013
#0341b:0000000000000013
#03618:1313
#03615:0013000000000000
#0361b:00130000
#03612:0000001300000013
#03610:41
#03715:0000000000130000
#0371b:0000000000130000
#03718:1300000000000013
#03714:0013000000000000
#0371a:00130000
#03716:0000001300000000
#03712:0000000000000013
#03512:0000000000000013
#0351b:00000013
#04018:0013000000000013
#04015:00130013
#0401b:0000000000130000
#04012:13
#04718:00130013
#04712:0013000000000013
#04715:0000001300130000
#0471b:0013
#04815:00130013
#0481b:0013000000000013
#04818:0000001300130000
#04812:0013
#04918:00130013
#04912:0013000000000013
#04915:0000001300130000
#0491b:0013
#05015:00130013
#0501b:0013000000000013
#05018:0000001300130000
#05012:0013
#04312:0013333333330000
#04315:00000000000000130000000000000000
#0441b:0013333333330000
#04418:00000000000000130000000000000000
#04515:0013333333330000
#04512:00000000000000130000000000000000
#04618:0013333333330000
#0461b:00000000000000130000000000000000
#05112:13
#0511f:11
#05218:13
#05212:0000000000000013
#0531b:13
#05318:0000130000130013
#05315:0013
#05312:00000013
#05415:13130000
#0541b:0013001300000000
#05412:0000000013000013
#05418:0000000000130000
#05518:0000000000001333
#05615:0000000000130013
#05618:00000013
#0561b:0000000000000013
#05812:0000000000130000
#05818:0000000000130000
#05912:0013
#05918:0013
#06115:00000013
#06118:13
#0611b:0000000000000013
#0611f:21
#06215:0000000000130013
#06218:00000013
#06210:41
#06318:00000013
#06312:0000000000000013
#0641b:00130000
#06415:0000001300000000
#06418:0013
#06412:0000000000130000
#06515:00131300
#0651b:0000001300000000
#06518:0000000000130000
#06512:0000000000001313
#06618:1313
#06615:0013000000130000
#0661b:00130013
#06612:0000001300000013
#06718:0013000000000000
#06712:00130013
#0671b:0000001300000013
#06715:0013
#06815:0013000000130023
#06818:00130013
#06812:0000001300000000
#0681b:0013
#06918:00000013
#06912:0000000000000023
#07018:0000000000130023
#07015:00000013
#07115:00000013
#0711b:0000000000000013
#07212:00130000
#07218:0000001300000000
#07215:0013
#0721b:0000000000130000
#07318:00131300
#07312:0000001300000000
#07315:0000000000130000
#0731b:0000000000001313
#07515:0013000000000000
#0751b:00130013
#07512:0000001300000013
#07518:0013
#07618:0013000013000000
#07615:0000130000130023
#0761b:0000001300000023
#07612:00000013
#07712:0013000000000000
#07718:0013000000000000
#07710:41
#08216:00000014000000000000000000000000
#0801a:0000000000000014
#09012:00140000
#09018:0014
#09014:00000014
#08312:0000000000000014
#08416:0000000000000014
#08512:0000000000000014
#08616:0000000000000014
#0871a:0000000000000014
#08816:0014
#0881a:0000000000000014
#0931b:0013000000000013
#09315:00130013
#09318:0000001300130000
#09312:0013
#09412:0013000000000013
#09418:00130013
#09415:0000001300130000
#0941b:0013
#0951b:0013000000000013
#09515:00130013
#09518:0000001300130000
#09512:0013
#09612:0013000000000013
#09618:00130013
#09615:0000001300130000
#0961b:0013
#07415:1313
#07418:0013000000130000
#07412:00130013
#0741b:0000001300000013
#06018:24240000
#06014:0024002400000000
#02512:3333333333330000
#01755:53
#02652:0000000000000053
#02855:0013
#03858:00630000
#03852:00630000
#02152:53
#03055:0053000000000000
#0305b:00530000
#0335b:0000000000000053
#0345b:0000000000000063
#03658:0013
#04155:0000000000530000
#04152:0000000000000053
#04255:0013000000000000
#0145b:0000000000000013
#01552:0000001300000000
#04752:0000000000000013
#0485b:0000000000000013
#04952:0000000000000013
#0505b:0000000000000013
#04352:0053000000000013
#04355:00000000000000230000000000000000
#0445b:0063000000000013
#04458:00000000000000230000000000000000
#04555:0063000000000013
#04552:00000000000000230000000000000000
#04658:0053000000000013
#0465b:00000000000000230000000000000000
#05558:00000053
#0565b:0000000000000053
#05655:0000000000000053
#05952:0053
#05958:0053
#06158:53
#0615b:0000000000000053
#06255:0000000000000053
#07758:0053000000000000
#07752:0053000000000000
#0805a:0000000000000054
#08256:00000024000000000000000000000000
#08352:0000000000000054
#08456:0000000000000054
#08552:0000000000000054
#08656:0000000000000054
#0875a:0000000000000054
#08856:0054
#0885a:0000000000000054
#06652:0000000000000013
#0675b:0000000000000013
#07552:0000000000000013
#06855:0000000000000053
#06952:0000000000000053
#07058:0000000000000053
#0745b:0000000000000013
#02452:0000000000000023
#003320:0000000000000013
#004320:0023000000000000
#0043b0:0000000000000013
#0053b0:0023000000000000
#006380:0000000000000013
#007380:0023000000000000
#009320:13230000
#012380:0000001300000000
#0123b0:0000000000330023
#013350:0000000000000013
#014320:0033002300000000
#017350:13
#017320:00000023
#021320:13
#021350:00230000
#024320:0000000000000013
#025320:3333333333332800
#026320:0000000000000013
#027350:0023
#029350:0000000000000013
#030350:0033000000000000
#030320:0000000000533323
#0293b1:0000000000000013
#0303b1:00330000
#030381:0000000000003323
#031381:00001323
#0333b1:0000000000000013
#034381:00230000
#0343b1:0000000000000013
#035381:0023
#038381:0013330000000000
#0383b1:0000000000230000
#038320:0013330000000000
#038350:0000000000230000
#039350:00001323
#041350:0000000000130000
#041320:0000000000000033
#042350:0023000000000000
#043320:0013333333333323
#043350:00000000000000530000000000000000
#0443b0:0013333333333323
#044380:00000000000000530000000000000000
#045350:0013333333333323
#045320:00000000000000530000000000000000
#046380:0013333333333323
#0463b0:00000000000000530000000000000000
#055380:0000000000001333
#0563b0:0023
#0563b0:0000000000000013
#058380:23
#056351:0000000000000013
#058321:23
#058321:0000000000000013
#059321:0033
#059351:00000023
#058380:0000000000000013
#059380:0033
#0593b0:00000023
#061380:13
#0613b0:0023
#0613b0:0000000000000013
#062380:0023
#062350:0000000000000013
#063320:0023
#064380:0000000000000013
#065380:0023000000000000
#068350:0000000000000013
#069320:0023
#069320:0000000000000013
#070350:0023
#070380:0000000000000013
#0713b0:0000000000230000
#072350:0000000000000013
#073350:0023000000000000
#077320:0013000000000000
#080350:00230000
#077381:0013000000000000
#0803b1:00230000
#0803a1:0000000014000034
#082361:00000054000000000000000000000000
#0833a1:0024
#083321:0000000000000014
#084361:0000000034000034
#085321:0000000000000034
#086361:0000000000000034
#087321:00000024
#0873a1:0000000000000014
#088361:0034
#0883a1:0000000000000034
#089361:0000000000000024
#0913a1:1400000000240000
#091351:00000000000000000000000000000013
#092351:00000000005300000000000000000000
#092331:00000000000000330000000023000000
#0913b0:00000000000000000000000000000013
#0923b0:00000000005300000000000000000000
#092390:00000000000000330000000023000000
