This file was generated by Ched 2.6.2.0.
#TITLE "master"
#ARTIST ""
#DESIGNER ""
#DIFFICULTY 0
#PLAYLEVEL
#SONGID ""
#WAVE ""
#WAVEOFFSET 0
#JACKET ""
#REQUEST "ticks_per_beat 480"
#00002: 4
#BPM01: 185
#00008: 01
#TIL00: ""
#HISPEED 00
#MEASUREHS 00
#00019:0000000000000013
#00014:0000000000000013
#00119:13
#00117:00130000
#00113:0000001300000000
#00115:0013
#00112:0000000000130000
#00116:0000000000001313
#0011b:0000000000000013
#00114:13
#0021b:0013000013001300
#00216:0000001313001300
#00212:1300000000130013
#00217:1300000000000013
#00419:0000001300000000
#00412:1300000000130013
#0041b:0013000000130000
#00417:1300000000000013
#0041a:0013
#00413:0013
#00414:0000001300000000
#0051b:0000130000000013
#00519:0000001300000000
#00514:0013
#00512:0000000000130000
#00516:00130000
#00518:0000000000130000
#00619:1300000000130000
#00617:0013001300000000
#00612:0000001300000013
#00614:0013
#0061b:00000013
#00615:00000013
#00716:0013000000000000
#0071a:0000131300000000
#00715:0000000000130000
#00718:0000000000000013
#00713:0000131300000000
#00714:13
#0091b:2300001300130013
#00917:00130013
#00918:0013
#00910:41
#01316:0013131313000000
#01312:0000130000000013
#01317:0000000000000013
#0131b:0013001313000000
#01417:0000000000130000
#01414:13000013
#0141b:1300001300130000
#01419:00130013
#01412:0000130000000023
#01416:0013000000000023
#01716:12
#01718:12000012
#01719:0000000000000012
#01712:0000001200000000
#01715:0000000000000012
#01710:41
#0181c:0012000000000012
#01819:00120000
#01815:0000001200000000
#01812:0012
#01916:12
#0191a:0012000000000000
#01914:00120000
#01918:0000001200000000
#01912:0012
#02012:0012000000000000
#02014:00120000
#02016:0000001200000012
#0201c:0000001200120000
#02019:00000012
#02018:0012000000000000
#0201a:00120000
#02615:00001313
#02618:0000260000130024
#02612:2314260000000014
#0261b:13
#0261a:0024000000000000
#02610:41
#0271b:0013
#0271a:00140000
#02714:0000001300001300
#02717:00140000000000000000130000001300
#02719:0000001300000000
#02716:0013
#02915:00001600000016000000160000130000
#0291b:0000130000000013
#02918:16001613
#02912:1300160013000013
#03012:0013000000000013
#03018:0013130000000000
#0301b:00000000000000000013000000000000
#03016:00000000000000130000000000000000
#03112:0000001313000000
#03116:00000013
#03118:0000000000000013
#03117:0000001313000000
#03217:00130000
#03214:0000000000131300
#03216:0000000000000015
#03219:0000000000131300
#03212:0000000000000013
#0331b:1313000013130013
#03312:0000131300130013
#03316:0000001500001400
#03315:1315000013000000
#03318:00130000
#04212:0013001300000023
#04214:00001313
#04216:0000000000140000
#0421b:1300001300000013
#04219:00001313
#0441b:0013000000001300
#04419:0000130000130000
#04417:0000001313000013
#04412:0000001300000013
#01017:1300001300000013
#0101b:00001313
#01018:0000000000130000
#01012:1300130013001313
#01013:0013001300130000
#0281b:0013
#02815:0000000000000016
#04313:0000130000130000
#04312:0000001313000000
#04318:0000001300000000
#0431b:0000000000000013
#04315:0013000000001300
#04316:0000000000000013
#04712:00001300000000000000001300001300
#04712:0013000000000000
#0471b:1300001313001300
#04716:0000001300000000
#04718:0000000000130013
#04715:00000000000000000013000000130000
#04719:00130000
#0481b:00001300000000000000001300001300
#04812:0000001313001300
#04817:0000001300000000
#04814:00130000
#04815:0000000000130013
#04818:00000000000000000013000000130000
#0121a:0013001300130000
#0121b:13131313
#01212:1300001300130000
#01216:0013
#01219:0000000000000023
#00812:0013130000002400
#0081b:0013130000000000
#00816:0013
#00819:00000000000000000014000000000000
#00817:00000000000000000000001300000000
#00813:0000000000140000
#00815:0000001600000016
#0081a:00000024
#02316:00120000000000000012000000000000
#0231c:1212000000120000
#02312:0000121200000012
#02318:00000000001200000000000000120000
#02315:00000012
#02319:0012
#02417:00130000000000000000000000000000
#0241b:1313000000130000
#02412:0000131300000013
#02416:00000000001300000000000000000000
#02418:00000000000000000013000013001300
#02415:00000000000000001300130000130000
#02214:1414
#02212:00130013
#02216:0014001400000013
#0221b:13001313
#02218:00140000
#02217:0000000000130000
#0211b:00130013
#02117:2313
#02119:0013000000130000
#02116:0000130000001414
#02114:0000001300000000
#02112:2313
#09512:0012000000000000
#09514:00121200
#09516:0000001200000000
#0951a:0000000000120000
#09518:0000000000001212
#0951c:0012
#09616:00001212
#09618:0012000000120012
#0961a:00120000
#0961c:0000001200000000
#09418:0012000000000000
#0941a:00121200
#0941c:0000001200000000
#09414:0000000000120000
#09416:0012
#09412:0000000000001212
#09314:00121200
#09316:0000001200000000
#0931a:0000000000120000
#09318:0000000000001212
#0931c:0012
#09312:0012000000000000
#00312:0013000013001300
#0031b:1300000000130013
#00316:1300000000000013
#00317:0000001313001300
#01116:1300001300000013
#01115:0000000000130000
#01112:00001313
#01516:0013000000000000
#01519:00130000
#01512:0013000000000000
#01514:00130000
#0151b:0000002300000000
#01517:0000002300000000
#0151a:0000000000003333
#01513:0000000000003333
#01612:0000000000000013
#01615:0000330000131300
#0161b:0000000000000013
#01618:00000000330000000000001300000000
#0161a:3333000000000000
#01613:3333000000000000
#02512:1300001300131300
#02518:00130000000000130013000000000013
#02515:0013130013000013
#0251b:00000013001300000000001300130000
#03415:00001313
#03412:0000000000130000
#0341a:0000000000000014
#03418:00000000000000000013000000130000
#0341b:00000000000000000000001300000000
#03414:0000000000000024
#03512:00141300
#03519:0000001300001300
#03515:00140000000000000000000000000000
#03516:0000000000130013
#03514:0000001300000000
#03517:0013
#03715:0016001600161300
#03712:1600130016000013
#0371b:1300000013000013
#03718:00000000160000000000000000130000
#0381b:0013000000000013
#03815:0013130000000000
#03812:0000001300000013
#03818:00000000001300000000000000000000
#03816:0000000000130000
#03819:00000000000000000000001300000000
#03814:00000013
#03817:00000000000000000000000000130000
#03612:0013
#03615:0000000000000016
#03610:41
#0391b:0000001313000000
#03917:00000013
#03915:0000000000000013
#03916:0000001313000000
#03912:0013000000000000
#04016:00130000
#04019:0000000000131300
#04015:0000000000000015
#04014:0000000000131300
#0401b:0000000000000013
#04112:1313000013001300
#0411b:0000131300130000
#04118:1300000013000013
#04115:0000131500130000
#04116:0015000000000000
#0491b:0000001313001300
#04916:0000001300000013
#04915:00000000000000000000001300000000
#04918:0000000000130000
#04912:00001300000000000013000000130000
#04919:0000130000000013
#0501b:00001300000000000013000000130000
#05012:1300001313001300
#05017:0000001300000013
#05014:0000130000000013
#05018:00000000000000000000001300000000
#05015:0000000000130000
#0511b:12120000
#0511a:0012000000000000
#0511c:0000001200000000
#05115:00001212
#05116:0000000000120000
#05114:0000000000000012
#0511f:11
#05219:1200120000000012
#05218:0012000000000000
#0521a:0000001200000000
#05213:00001212
#05214:0000000000120000
#05212:0000000000000012
#04512:0013000000001313
#04514:0000130000130000
#04516:0000001313000000
#0451b:0000001300000000
#04517:0000000000000013
#0461a:0000130000130000
#0461b:0000001313000000
#04615:0000001300000000
#04618:0013000000001300
#04617:0000000000000013
#04614:0000000000000013
#0531c:1212
#05319:00120000
#05316:0000000000120000
#0531a:00000012
#05314:0000000000000012
#05315:00120000
#05418:12
#05412:0012000000000000
#0541a:0000001200000012
#05414:0000000000120012
#05417:0012
#05518:1200000000001212
#05516:1200000000000012
#05512:00000000000000120000000000000000
#0591a:12120000
#05914:0012000000000000
#05915:00001212
#05919:00001212
#06012:1626162600000000
#06018:2616262600000000
#06412:00131300
#06416:0000001300130013
#06417:0013
#0641b:0000001300130013
#06112:14
#06116:2400000000001414
#0611a:0000000000000014
#0611b:0000000000130000
#06117:0000001400000000
#0611f:21
#06215:00140000
#06212:0000000013000014
#06216:0000000000140014
#06214:00000018
#06210:41
#06317:00140000
#06316:0000000000140000
#0631b:0000000013000013
#06312:0000000000000013
#06318:00000013
#06315:00000000000000000000000000130000
#06517:0013000000001300
#0651b:00130000
#06512:00131313
#06516:0000001300130000
#06514:0000000000000013
#0661b:1300001300000013
#06619:0013000000001300
#06617:0000130000130000
#06612:0000130000130000
#06616:1300001300000013
#06614:0013
#06717:0000001300000013
#06712:0000001300000013
#06719:00130013
#0671b:0013000000130000
#06716:0013000000130000
#06714:0013
#06812:001300000000132c
#06912:0000000000001a2c
#07014:0000001a
#07012:0000000000000026
#07018:0000000000000026
#07118:00000013
#07115:00000000000000000000000000130000
#0711b:0000000000000013
#07112:0000000000000013
#0721b:0000130013000023
#07218:0000001300131300
#07215:00000000130000001300001300002300
#07212:00000000000013000000000000130000
#07317:1313
#0731b:0013000000130000
#07316:00130013
#07312:0000001300000013
#0741b:1313000000130000
#07417:0000130000001313
#07412:0000001300000013
#07416:1313
#07516:0000001300000013
#07514:0013000000000000
#07519:00130000
#0751b:1300001313000013
#07512:00000013
#07612:1300001300001300
#07619:0013000000000000
#07614:0000130000130000
#07617:0000001300000000
#07616:0000000013000013
#0761a:00000000000000000013000000000000
#07618:00000000000000000000001300000000
#0761b:0000000000000023
#07712:0000130000131300
#07716:0000001313000000
#07715:0000000000000019
#0771b:00000000000000130000000000000000
#07717:0013000000000000
#07710:41
#0781b:0013130000131300
#07817:0000001313000000
#07812:00000000000000130000000000001900
#07816:0013000000000000
#07912:0013130000131300
#07916:0000001313000000
#07915:0000000000000019
#0791b:00000000000000130000000000000000
#07917:0013000000000000
#08016:0000001300000000
#08017:00001300130000000000003333330000
#08012:0013130000000023
#0801a:00000000000000330000000000000000
#08019:0033
#08018:00000000000000000033330000000000
#08112:0013001300131600
#0811b:00000013000000130000001300000000
#08115:0000130013000023
#08118:00000000001300000013000023001600
#0821b:0013001300130000
#08212:00000013000000130000001300001600
#08218:0000130013001623
#08215:00000000001300000013000023000000
#08312:0013001300131600
#0831b:00000013000000130000001300001300
#08315:0000130013000023
#08318:00000000001300000013000023000000
#05612:0000000000120000
#0561c:00000012000000000000000000001200
#05618:0000000000120000
#0561a:00000012
#05616:0000000012000012
#05614:00000012
#05719:00121212
#05715:0000001200120012
#0581b:1300001300130000
#05816:00000000120000000000001300000000
#05812:13000000000013000000000000000013
#05818:00000000001200000000000000000000
#05819:00000013
#05814:00000000000000000000000000130000
#05817:0000000000000013
#08416:00000013000000000000001300000000
#08412:0013
#08417:0000000000000013
#08512:0013000000001300
#08514:0000130000130000
#08516:0000001313000000
#0851b:00000000000000130000000000000000
#08515:0000000000000013
#0861b:0013000000001300
#08619:0000130000130000
#08617:0000001313000000
#08612:00000000000000130000000000000000
#08618:0000000000000013
#0871b:00000000000000130000000000000000
#08712:0013000000001313
#08714:0000130000130000
#08716:0000001313000000
#09018:0000001300000000
#09015:0000130000131300
#0901b:0000000013000013
#09012:0013000000000000
#09017:00130000000000000000000000000000
#0891b:0013000000001313
#08919:0000130000130000
#08917:0000001313000000
#08912:0000001300000000
#08812:00000013
#0881b:00130000
#08816:00000013000000000000000000001300
#08817:0000000000130000
#09112:13
#0911b:13
#09117:00000000000000000000000000000012
#09212:000000000000001c0000000000000000
#01756:52
#01752:0000002200000000
#02652:0000000000000054
#02658:0000000000000044
#0275b:0053
#02757:00240000000000000000230000000000
#03052:0063000000003300
#03058:0000630000000033
#0305b:00000000000000000023000000000000
#03056:00000000000000230000000000000000
#00156:0000000000000053
#00252:23
#00257:0000000000000063
#00452:2300000000000053
#00457:0000000000000053
#01452:0000230000000033
#01456:0063000000000000
#0145b:23
#01459:0033000000000000
#01454:0000004300000000
#0035b:23
#00356:0000000000000053
#0105b:0043000000000000
#01057:23
#01052:0000000000000063
#0095b:0000000000000053
#01156:2300000000000063
#01152:0033000000000000
#01252:2300000000630000
#01256:0043000000000000
#0135b:0063
#01356:0063
#01357:0000000000000063
#01352:0000000000000043
#0155b:0000004300000000
#02256:0044003400000000
#02156:0000000000000034
#02856:0043
#0285b:0043
#03157:0053
#0335b:0000000000000053
#03352:0000000000000063
#03252:00130000
#03257:00130000
#03552:0063
#03555:00240000000000000000000000000000
#03556:0000000000230000
#0385b:0053000000000053
#03852:0000002300000000
#03858:00000000002300000000000000000000
#03855:00530000
#0345a:0000000000000064
#03454:0000000000000034
#03652:0033
#03657:0033
#04056:00130000
#0405b:00130000
#03956:0063
#0415b:0000000000430000
#04155:0000000000630043
#04158:0000000000000053
#04152:00000023
#04258:0033000000000000
#0425b:2300000000000063
#04758:0000000000000043
#04752:0000000000000053
#0475b:23
#0485b:0000000000000063
#04855:0000000000000033
#04956:0000000000000053
#04959:0000000000000043
#05052:23
#05054:0000000000000033
#0515b:52520000
#0515a:0022000000000000
#0515c:0000002200000000
#05155:00006262
#05156:0000000000220000
#05154:0000000000000022
#05259:52520000
#05258:0022000000000000
#0525a:0000002200000000
#05253:00006262
#05254:0000000000220000
#05252:0000000000000022
#04358:0000002300000000
#0435b:0000000000000013
#04356:0000000000000063
#04452:0000002300000013
#04457:0000000000000053
#0455b:0000002300000000
#04552:0000000000000053
#04557:0000000000000013
#04655:0000002300000000
#04657:0000000000000063
#04654:0000000000000033
#06152:54
#0615a:0000000000000054
#06156:4400000000000034
#06157:0000002400000000
#06255:00240000
#06252:0000000000000054
#06256:0000000000000044
#06357:00240000
#0635b:0000000000000053
#06352:0000000000000033
#06852:000000000000006c
#06952:000000000000005c
#07052:0000000000000066
#07058:0000000000000066
#0715b:0000000000000043
#07152:0000000000000033
#07352:0000000000000063
#07357:0000000000000043
#07457:0000000000000063
#07452:0000000000000033
#07456:23
#0755b:2300000000000043
#07556:0000000000000053
#07652:23
#07656:0000000000000063
#07752:00000033
#07755:0000000000000049
#0775b:00000000000000230000000000000000
#07757:0063000000000000
#0785b:00000043
#07852:00000000000000230000000000003900
#07856:0053000000000000
#07952:00000033
#07955:0000000000000049
#0795b:00000000000000230000000000000000
#07957:0063000000000000
#08152:00000036
#08158:0000000000000046
#08258:00000046
#08252:0000000000000036
#08352:00000036
#0835b:0000000000000063
#06456:0000000000000053
#06656:0000000000000013
#0665b:0000000000000013
#06752:0000000000000013
#06757:0000000000000013
#05552:00000000000000220000000000000000
#05556:62
#05558:0000000000000052
#0565c:00000022000000000000000000000000
#08456:00000023000000000000002300000000
#08452:0000000053000033
#08457:0000000000000063
#0855b:00000000000000230000000000000000
#08558:0000000000000033
#08555:0000000000000053
#08655:0000000000000043
#08652:00000000000000230000000000000000
#08658:0000000000000063
#0875b:00000000000000230000000000000000
#08752:0000000000000063
#09055:00530053
#0905b:0053
#09057:00230000000000000000000000000000
#0885b:0000000000000043
#08856:00000023000000000000000000005300
#08857:0000000000230000
#09152:63
#0915b:63
#09157:00000000000000000000000000000022
#09252:000000000000005c0000000000000000
#09257:00000012
#08952:0000002300000000
#0895b:0000000000000063
#0013b0:00130023
#001360:0000000000000013
#002320:53
#002360:0023000000000000
#002370:0000000000000013
#0033b0:53
#003370:0023000000000000
#003360:0000000000000013
#004320:53
#004360:0023000000000000
#004320:0000000000000013
#005360:0023000000000000
#004371:0000000000000013
#0053b1:0023000000000000
#005371:0000000000000013
#006321:5323000000000000
#006361:0000000000000013
#0073b1:5323000000000000
#007381:0000000000132300
#007350:0000000000001323
#009320:1323000000000000
#009320:0000132300000000
#009320:0000000013230000
#009320:0000000000001323
#0093b1:0000000000000013
#010371:53
#0103b1:0023000000000000
#010321:0000000000000013
#011361:53
#011321:0023000000000000
#0113b0:1323000000000000
#0113b0:0000132300000000
#0113b0:0000000013230000
#0113b0:0000000000001323
#011361:0000000000000013
#012321:53
#012361:0023000000000000
#012321:0000000000130000
#012361:0000000000000023
#0133b1:0013
#013371:00000023
#013360:0013
#013320:00000023
#013370:0000000000000013
#0143b0:53
#014390:0023000000000000
#014361:0013000000000000
#014321:00530000
#014341:0000002300000000
#0153b1:0000000000130000
#0153a1:0000000000003333
#0163a1:3333000000000000
#016381:0000332300000000
#015320:0000000000130000
#015330:0000000000003333
#016330:3333000000000000
#016350:0000332300000000
#017360:12000022
#017320:0000005200000000
#019350:0000000000120022
#019391:0000000000120022
#026321:0000000000000014
#027371:00540000000000000000000000000000
#027321:00240000
#0273b1:00001323
#027371:0000000000530000
#027321:0000000000000013
#028361:23
#0283b0:13
#028370:0023000000000000
#028321:0013000000000000
#028361:00230000
#0283b0:00130000
#028370:0000002300000000
#028321:0000001300000000
#028361:0023
#030321:0013000000002300
#030361:00000000000000530000000000000000
#030380:0000130000000023
#0303b0:00000000000000000053000000000000
#031370:0013
#0313b0:00000023
#031350:0000000000000013
#032350:23
#0323b1:1323000000000000
#032320:0013230000000000
#0333b0:0000000000000013
#034380:00230000
#033321:0000000000000013
#034351:00230000
#0343a1:0000000000000014
#035351:00540000000000000000000000000000
#0353a1:00240000
#035321:00001323
#035361:0000000000530000
#0353b1:0000000000000013
#036371:23
#036320:13
#036360:0023000000000000
#0363b1:0013000000000000
#036371:00230000
#036320:00130000
#036360:0000002300000000
#0363b1:0000001300000000
#036371:0023
#0383b1:0013000023000000
#038381:00000000005300000000000000000000
#038350:00132300
#038320:0000005300000000
#0383b0:0000000000000013
#039360:0023000000000000
#039360:0013
#039320:00000023
#039380:0000000000000013
#040380:23
#040321:1323000000000000
#0403b0:0013230000000000
#041350:0000000000130023
#041320:00000053
#041381:0000000000000013
#0423b1:53
#042381:0023000000000000
#0423b1:0000000000000013
#043381:0000005300000000
#0433b1:00000023
#043361:0000000000000013
#044321:0000005300000000
#044361:00000023
#044371:0000000000000013
#0453b1:0000005300000000
#045371:00000023
#045321:0000000000000013
#046351:0000005300000000
#046321:00000023
#046371:0000000000000013
#0473b1:53
#047371:0023000000000000
#047321:0000000000000013
#048371:0023000000000000
#0483b1:0000000000000013
#049361:0023000000000000
#049361:0000000000000013
#050321:53
#050361:0023000000000000
#0513b1:12522200
#0513a1:0052000000000000
#0513c1:0000005200000000
#051350:00001252
#051360:0000000000520000
#051340:0000000000000052
#052350:22
#052391:12522200
#052381:0052000000000000
#0523a1:0000005200000000
#052330:00001252
#052340:0000000000520000
#052320:0000000000000052
#053330:22
#055360:12000022
#055320:00000000000000520000000000000000
#055380:0000000000000012
#0563c0:00000052000000000000000000000000
#056380:0022
#061320:14000024
#061370:0000005400000000
#0613a0:0000000000000014
#062350:00540000
#0623a0:0000000000240000
#062320:0000000000000014
#063370:00540000
#063320:0000000000240000
#0633b0:0000000000000013
#064370:00230000
#064360:0000000000000013
#065320:0023000000000000
#0653b0:0000001300230000
#065360:0033
#068370:0013000000000000
#0683b0:00230000
#068321:00130000
#068361:0000002300000000
#0683b0:0000001323000000
#068361:0013
#068321:0000000000230000
#068370:0000000000130000
#0683b0:00000023
#068320:000000000000001c
#0693c0:00000022
#069320:000000000000001c
#070320:00000022
#070380:0000000000000016
#0713c0:0000000000220000
#070321:0000000000000016
#071321:0000000000220000
#073321:13
#073361:0023000000000000
#0733b1:00130000
#073371:0000002300000000
#073321:0013
#073361:0000000000230000
#0733b1:00000013
#073371:0000000000000023
#073320:0000000000000013
#074360:53
#074320:0023000000000000
#074370:0000001300000000
#0743b0:0023
#074360:0000000000130000
#074320:00000023
#074370:0000000000000013
#0753b0:53
#075370:0023000000000000
#075360:0013
#075320:0000000000230000
#0753b1:0000000000130000
#075371:00000023
#075361:0000000000000013
#076321:53
#076361:0023000000000000
#076361:0000000000000013
#077321:0023000000000000
#077370:0013000000002300
#0773b0:00000000000000530000000000000000
#078360:0013000000002300
#078320:00000000000000530000000000000000
#079370:0013000000002300
#0793b0:00000000000000530000000000000000
#0803b0:0000001300000000
#0803a0:00000000000000330000000000000000
#080390:0033
#080380:00000000000000000033330000000000
#080370:00000000000000000000003333330000
#080360:0000000000000023
#0833b0:0000000000000013
#084360:00000053000000000000000000000000
#0843b0:0023
#084321:0000000013000023
#084361:00000000000000000000005300000000
#084370:0000000000000013
#0853b0:00000000000000530000000000000000
#085380:0000000000000023
#085351:0000000000000013
#086321:00000000000000530000000000000000
#086351:0000000000000023
#086380:0000000000000013
#0873b0:00000000000000530000000000000000
#087380:0000000000000023
#087321:0000000000000013
#088361:00000053000000000000000000000000
#088321:0023
#088370:0000000013530000
#0883b0:0000000000000023
#088361:0000000000000013
#089321:0000005300000000
#089361:0000000000000023
#0893b0:0000000000000013
#090370:00530000000000000000000000000000
#0903b0:00230000
#090351:00130000
#090321:0023
#0903b0:0013
#090380:00000023
#090351:00000013
#091321:33
#091351:0000005300230000
#0913b0:13
#091380:0000005300230000
#091370:00000000000000000000000000000012
#092320:000000000000003c0000000000000000
#092370:00000022
#093320:0000000000001222
#094380:0000000000001222
#095320:0000000000001222
