This file was generated by Ched 2.6.2.0.
#TITLE "normal"
#ARTIST ""
#DESIGNER ""
#DIFFICULTY 0
#PLAYLEVEL
#SONGID ""
#WAVE ""
#WAVEOFFSET 0
#JACKET ""
#REQUEST "ticks_per_beat 480"
#00002: 4
#BPM01: 185
#00008: 01
#TIL00: ""
#HISPEED 00
#MEASUREHS 00
#00119:14141400
#00213:14141400
#00319:14141400
#00513:14141400
#00619:14141400
#00713:14141400
#00918:1414
#00914:00140014
#00910:41
#01114:1414
#01118:00140014
#0131a:1414
#01314:00140014
#01512:1414
#01518:00140014
#0211a:1414
#02114:00140014
#02218:1414
#02212:00140014
#0231a:14140000
#02314:00001414
#02418:14140000
#02412:00001414
#0271a:0014
#02714:0014
#02712:24
#02718:24
#02814:1414
#02818:00140000
#0291a:1414
#02914:00140014
#03112:0014
#03118:0014
#0311a:14
#03114:14
#03218:1414
#03214:00140000
#03312:1414
#03318:00140014
#03512:0014
#03518:0014
#03514:24
#0351a:24
#03612:00140000
#0361a:14
#03618:0014
#03610:41
#03712:14
#03718:00140000
#03714:0014
#0371a:00000014
#03918:14
#03912:14
#0391a:0014
#03914:0014
#04312:1414
#04318:00140000
#0401a:00140000
#04012:14
#04014:0014
#0411a:14
#04114:00140000
#04118:0014
#04112:00000014
#0441a:1414
#04414:00140000
#04512:1414
#04518:00140000
#0461a:1414
#04614:00140000
#05113:14
#0511f:11
#05219:14
#05312:14
#0531a:0014
#05414:14
#05418:0014
#05516:14
#05613:14
#05619:14
#05719:1414
#05713:00140014
#05913:1414
#05919:00140014
#06512:1414
#06518:00140014
#06612:14
#0661a:00140000
#06614:0014
#0671a:14
#06712:00140000
#06718:0014
#06714:00000014
#0681a:14
#06812:14
#0731a:1414
#07314:00140014
#0741a:14
#07412:00140000
#07418:0014
#07512:14
#0751a:00140000
#07514:0014
#07518:00000014
#07612:14
#0761a:00140000
#07614:0014
#07618:00000014
#09313:0014
#09419:14140000
#09413:0014
#09519:14
#09513:0014
#09619:14140014
#09613:0000000014000014
#0611f:21
#0481a:00340000
#04712:00340000
#0501a:00340000
#04912:00340000
#08514:0000000000000034
#08614:0000000000000034
#09014:00003434
#09218:0034
#02618:3434000000000000
#02610:41
#01710:41
#06210:41
#07710:41
#02656:00180000
#06053:0000001400000000
#004390:1424
#008330:1424
#010380:1424
#012340:1424
#0143a0:1424
#016320:1424
#017380:1424
#018340:1424
#0193a0:14
#019380:0024
#020320:14
#020340:0024
#025380:14
#026380:3434000000000000
#026360:00280000
#0303a0:1424
#034320:1424
#038340:14
#038320:0024
#042380:14
#0423a0:0024
#047320:14340000
#047340:0024
#0483a0:14340000
#048380:0024
#049320:14340000
#049340:0024
#0503a0:14340000
#050380:0024
#058390:14342400
#060330:1434342400000000
#0613a0:14
#061380:00000024
#062340:14
#062320:00000024
#063320:14
#063340:00000024
#064380:14
#0643a0:00000024
#068320:0000000014000034
#069340:00000024
#070380:14
#0703a0:00000024
#0713a0:14
#071380:00000024
#072340:14
#072320:00000024
#077320:14
#080340:00240000
#080380:0000000014000034
#0833a0:0024
#083340:0000000000000014
#084340:0000000034000034
#085340:0000000000000034
#086340:0000000000000034
#087320:0024
#087380:0000000000000014
#088380:0000000034000034
#0893a0:0024
#089340:0000000000000014
#090340:00343434
#091320:24
#092380:1434
#0923a0:0000000000000024
