This file was generated by Ched 2.6.2.0.
#TITLE ""
#ARTIST ""
#DESIGNER ""
#DIFFICULTY 0
#PLAYLEVEL
#SONGID ""
#WAVE ""
#WAVEOFFSET 0
#JACKET ""
#REQUEST "ticks_per_beat 480"
#00002: 4
#BPM01: 145
#00008: 01
#TIL00: ""
#HISPEED 00
#MEASUREHS 00
#00119:14
#00213:14
#0091a:14
#00910:41
#00319:14
#00413:14
#01719:14
#01710:41
#01813:14
#03312:0016
#03318:26
#0331f:21
#05719:14
#05713:0014
#05819:14
#05813:0014
#05919:14
#05913:0014
#06019:1415
#06013:14
#06012:0015
#01014:14
#03418:1616
#03410:0041
#03512:16
#03518:0016
#03612:1616
#0251f:11
#02519:14
#01312:14
#01418:14
#01919:14
#02013:14
#02613:14
#02719:14
#02919:14
#03013:14
#03119:14
#03213:14
#04118:0016
#04112:26
#04212:1616
#04318:16
#04312:0016
#04418:1616
#04912:0016
#04918:26
#04910:41
#05018:16
#05012:0016
#05318:0016
#05312:26
#05412:16
#05418:0016
#00519:14
#00619:14
#00713:14
#00813:14
#02119:14
#02219:14
#02313:14
#02310:41
#02413:14
#03718:16
#03712:0016
#03818:16
#03812:0016
#04512:16
#04518:0016
#04612:16
#04618:0016
#05510:41
#011380:14
#012380:24
#015340:14
#016340:24
#028330:1424
#039380:16
#040380:26
#047320:16
#048320:26
#051380:16
#052380:26
#055320:16
#056320:26
